Завантажити та скачати торренти українською


Сашко Лірник - Країна Мрій (2010) CAM | Fairy-tale

Нові коментарі

Нова тема   Відповісти
Автор Повідомлення
aimtoknow 
VIP


З нами з: 29.11.09
Востаннє: 14.04.11
Повідомлень: 578

2010-07-11 10:55  
Сашко Лірник - Країна Мрій (2010) CAM | Fairy-tale


Стиль: Fairy-tale
Країна, місто: Україна, Київ-Умань
Виконавці: Сашко Лірник (Олександр Власюк)

Казки:
1-Як козак з відьмою женився
2-Про молодицю, її гірку долю, і портрет міської панночки
3-Казка про язикату Феську
4-Про дівчину Марусю, чорта в червоних чоботях, чорну церкву і чарівну квітку
5-Про цигана Романа, Мару-Поторочу і Москальське царство
6-Казка про собаку та вовка

Сюжет: Запис виступу Сашка Лірника на сьомому Міжнародному етнічному фестивалі "Країна Мрій" на Співочому полі у Києві (10.07.10).

Тривалість: 00:58:38
Якість: CAM (фотоапарат Panasonic Lumix DMC-LZ2)
Відео:
кодек: M-JPEG
розмір кадру: 320 х 240
бітрейт: 3934 кб/с

Аудіо:
мова: українська
кодек: PCM (mono)
бітрейт: 64 кб/с
Скріншоти:
Джерело:

Особиста оцінка: 10 - без зайвих вагань рекомендую всім!


Золотий реліз (завантажене не впливає на рейтинг)
 Трекер:    Зареєстрований   

Завантажити / скачати кліп українською



відео для новачків



 Зареєстрований:   2010-07-11 10:55
 Розмір:   1.64 GB 
 Оцінка кліпу:   9.8/10 (Голосів: 11)
   
aimtoknow 
VIP


З нами з: 29.11.09
Востаннє: 14.04.11
Повідомлень: 578

2010-07-11 11:01  
Ніяк не можу второпати кодек відео та аудіо, тож викладаю інформацію з MediaInfo. Можливо хто підкаже, чи вже модератори виправлять.
тиць:
General
Complete name : /home/aimtoknow/Завантаження/Torrent/hurtom.com/Сашко_Лірник_Країна_Мрій_(2010)_[CAM]_[hurtom.com]_by_aimtoknow/2-Про_молодицю,_її_гірку_долю,_і_портрет_міської_панночки.MOV
Format : QuickTime
Format/Info : Original Apple specifications
File size : 241 MiB
Duration : 8mn 25s
Overall bit rate : 3 999 Kbps
Encoded date : UTC 2010-07-10 16:03:05
Tagged date : UTC 2010-07-10 16:03:05
Writing library : pana

Video
ID : 1
Format : M-JPEG
Codec ID : jpeg
Duration : 8mn 25s
Bit rate mode : Variable
Bit rate : 3 934 Kbps
Width : 320 pixels
Height : 240 pixels
Display aspect ratio : 4:3
Frame rate mode : Constant
Frame rate : 30.000 fps
Bits/(Pixel*Frame) : 1.707
Stream size : 237 MiB (98%)
Language : English
Encoded date : UTC 2010-07-10 16:03:05
Tagged date : UTC 2010-07-10 16:03:05

Audio
ID : 2
Format : PCM
Format settings, Endianness : Little
Format settings, Sign : Unsigned
Codec ID : raw
Duration : 8mn 25s
Bit rate mode : Constant
Bit rate : 64.0 Kbps
Channel(s) : 1 channel
Sampling rate : 8 000 Hz
Resolution : 8 bits
Stream size : 3.85 MiB (2%)
Language : English
Encoded date : UTC 2010-07-10 16:03:05
Tagged date : UTC 2010-07-10 16:03:05

jinotot 
Почесний оцифрувальник літератури


З нами з: 28.01.09
Востаннє: 04.12.16
Повідомлень: 3235

2010-07-11 11:43  
Ого! Файна якість! Дякую дуже! Хоч в записі, може, гляну, а то вчора ми щось завтикали й не попали на Лірника Сашка Rolleyes (3)
А це до великого дощу було чи вже після? Чи під час?)))

aimtoknow 
VIP


З нами з: 29.11.09
Востаннє: 14.04.11
Повідомлень: 578

2010-07-11 11:57  
jinotot написано:

Ого! Файна якість! Дякую дуже! Хоч в записі, може, гляну, а то вчора ми щось завтикали й не попали на Лірника Сашка
А це до великого дощу було чи вже після? Чи під час?)))

Я другий рік поспіль дивлюся повністю виступ Лірника; а минулі роки теж прогавлював Happy .
Злива почалася одразу ж після виступу. Але зфотографуватися з паном Олександром я встиг Happy .

hupalo 
VIP


З нами з: 03.07.09
Востаннє: 05.01.16
Повідомлень: 519

2010-07-11 16:47  
Добра штука? Вартує уваги і завантаження??? Порадьте будь-ласка!
aimtoknow 
VIP


З нами з: 29.11.09
Востаннє: 14.04.11
Повідомлень: 578

2010-07-11 16:52  
hupalo, читай ПП.
weber 
Почесний гуртомівець


З нами з: 03.08.08
Востаннє: 07.12.16
Повідомлень: 7003

2010-07-12 19:17  
aimtoknow, дякую за записи.
aimtoknow написано:
PCM

оце кодек звуку
aimtoknow написано:
M-JPEG

оце відео.
Ну і це все діло в контейнері
aimtoknow написано:
QuickTime

тому треба кодек для відтворення, якщо ще не має.

aimtoknow 
VIP


З нами з: 29.11.09
Востаннє: 14.04.11
Повідомлень: 578

2010-07-12 20:31  
weber, дякую за ідентифікацію кодеків! Інформацію доповнив.
З відтворенням цих відеороликів я не мав проблем ані на Windows (з встановленими klite mega codec pack), ані в Linux (Kubuntu + kubuntu-restricted-extras). Просто ніколи не заглядав всередину формату, тож і викликало певні труднощі з визначенням.

nodus2 
Новенький


З нами з: 16.11.09
Востаннє: 18.10.15
Повідомлень: 1

2011-04-24 20:58  
Дякую за реліз! Донька полюбляє слухати Сашка Лірника, тож буде задоволенна.
hp-635 
Частий відвідувач


З нами з: 03.04.12
Востаннє: 05.12.16
Повідомлень: 30

2012-05-06 08:22  
Хто-небудь, станьте, будь-ласка, на роздачу.
Ваш часовий пояс: GMT + 2 Години

Нова тема   Відповісти