Завантажити та скачати торренти українською


Мандариновий рай - Подивись у вікно (2007) [FLAC] | Pop Rock

Нові коментарі

Нова тема   Відповісти
Останній раз роздавалося ssTAss (2016-12-10)
Автор Повідомлення
ssTAss 
Модератор музики


З нами з: 05.07.08
Востаннє: 10.12.16
Повідомлень: 10950

2010-07-10 17:40  
Мандариновий рай - Подивись у вікно (2007) [FLAC] | Pop Rock



Стиль: Pop Rock
Країна, місто: Україна, Черкаси
Сайти: Офіційний сайт
Видавець: MOON Records
Виконавці:
Над альбомом працювали:

Барабани – Олексій Биков
Бас – Олександр Лисенко
Гітара – Дмитро Вахнік
Гітара – Сергій Лисов
Гітара - Олександр Лисенко (11)
Клавішні – Олександр Дудко
Скрейчі – Валік Матіюк (гурт «Бумбокс») (10)
Вокал – Андрій Хливнюк (гурт «Бумбокс») (10)
Вокал – Євгенія Сахарова
Вокал – Дмитро Червоний
Звукорежисер – Олександр Дудко

Музика - Дмитро Червоний, Максим Лушпиган (8), Дмитро Вахнік (13)
Тексти пісень – Дмитро Червоний
Аранжування – гурт «Мандариновий РАЙ», Олександр Дудко, Олександр Гаврилов (8)
Зведення, мастерінг – Олександр Дудко
Пісні:
    1. Подивись у вікно
    2. Літатиму
    3. Сон
    4. Слова
    5. Кіно
    6. Намисто
    7. Залишаю тебе
    8. Там, де ти
    9. Зорепади
    10. Година (feat. Бумбокс)
    11. Білий птах
    12. Зимовий день
    13. Не шкодуй
    відео
    14. Літатиму
    тех. дані

    Відео
    Якість: DVD-Video
    Тривалість: 00:03:19
    кодек: MPEG-2
    розмір кадру: 720x576
    бітрейт: 5 730 кбіт/сек

    Аудіо
    мова: українська
    кодек: MPEG-1
    бітрейт: 384 кбіт/сек
    log
    Exact Audio Copy V0.99 prebeta 5 from 4. May 2009

    EAC extraction logfile from 5. July 2010, 11:27

    Мандариновий Рай / Подивись у вікно

    Used drive : TSSTcorpCD/DVDW SH-S182D Adapter: 1 ID: 0

    Read mode : Secure
    Utilize accurate stream : Yes
    Defeat audio cache : Yes
    Make use of C2 pointers : No

    Read offset correction : 6
    Overread into Lead-In and Lead-Out : No
    Fill up missing offset samples with silence : Yes
    Delete leading and trailing silent blocks : No
    Null samples used in CRC calculations : Yes
    Used interface : Native Win32 interface for Win NT & 2000

    Used output format : User Defined Encoder
    Selected bitrate : 1024 kBit/s
    Quality : High
    Add ID3 tag : No
    Command line compressor : C:\Program Files\Exact Audio Copy\Flac\flac.exe
    Additional command line options : -T "DATE=%y" -T "GENRE=%m" -8 -V %s

    TOC of the extracted CD

    Track | Start | Length | Start sector | End sector
    ---------------------------------------------------------
    1 | 0:00.00 | 4:02.52 | 0 | 18201
    2 | 4:02.52 | 3:16.62 | 18202 | 32963
    3 | 7:19.39 | 3:05.64 | 32964 | 46902
    4 | 10:25.28 | 3:40.54 | 46903 | 63456
    5 | 14:06.07 | 3:28.25 | 63457 | 79081
    6 | 17:34.32 | 3:08.49 | 79082 | 93230
    7 | 20:43.06 | 3:24.40 | 93231 | 108570
    8 | 24:07.46 | 3:26.22 | 108571 | 124042
    9 | 27:33.68 | 2:19.63 | 124043 | 134530
    10 | 29:53.56 | 2:53.26 | 134531 | 147531
    11 | 32:47.07 | 2:40.32 | 147532 | 159563
    12 | 35:27.39 | 3:19.73 | 159564 | 174561
    13 | 38:47.37 | 3:59.06 | 174562 | 192492
    14 | 45:18.43 | 17:51.61 | 203893 | 284278

    Range status and errors

    Selected range

    Filename D:\Music\Мандариновый Рай\Мандариновий Рай - Подивись у вікно.wav

    Peak level 94.8 %
    Range quality 100.0 %
    Test CRC E450193E
    Copy CRC E450193E
    Copy OK

    No errors occurred

    End of status report

Тривалість: 00:42:47
Мова: українська
Аудіо-кодек: FLAC
Бітрейт: 918 кб/с
Джерело: інший трекер
Додаткова інформація:
Вперше гурт із такою назвою вийшов на сцену у травні 1996 року на регіональному фестивалі «Свято без приводу- 96», де одразу став дипломантом фестивалю. Після такої прем’єри, впродовж кількох років гурт на радість слухачів активно брав участь у різних концертах, фестивалях як регіонального, так і всеукраїнського рівня.
У 2001 році МР в оновленому складі переїздить до Києва, де у листопаді того ж року стає переможцем всеукраїнського фестивалю «Перлини Сезону-2001» у номінації «Рок-музика». Пісні гурту починають видаватись у різних збірках, потрапляють до ефіру багатьох радіостанцій Києва і України.
У 2004 році гурт бере участь у фестивалі «Рок Екзистенція», що відбувався на Майдані Незалежності в центрі Києва під час помаранчевої революції. У тому ж році Мандариновий РАЙ за запрошенням організаційного комітету конкурсу бере участь у відбіркових турах Євробачення, де припиняє участь, ставши полуфіналістом конкурсу .
З 2005 року тривала робота МР над альбомом «Подивись у Вікно», реліз якого відбувся у червні 2007 року. На пісню «Літатиму» було знято відеокліп, який і на сьогоднішній день транслюється на різних телеканалах.
В 2008 році в Інтернет-просторі з’явився кліп на пісню «Звёзды», що увійде до нової платівки Мандаринового РАЮ, яка матиме назву «Дивитись на Райдугу».


Якщо Ви справді бажаєте підтримати українське - після прослуховування, якщо музика вам сподобалась,
придбайте ліцензійний диск. Підтримаймо вітчизняних виконавців!


Срібний реліз (на рейтинг впливає 50% завантаженого)
 Трекер:    Зареєстрований   

Завантажити / скачати українську музику



відео для новачків



 Зареєстрований:   2010-07-10 17:40
 Розмір:   491 MB 
 Оцінка музики:   7/10 (Голосів: 9)
   
smetvlad 
Свій


З нами з: 19.12.08
Востаннє: 06.11.16
Повідомлень: 70

2010-07-10 20:39  
гарна музика
Ваш часовий пояс: GMT + 2 Години

Нова тема   Відповісти