Завантажити та скачати торренти українською


Knell - Серед вiчних холодiв (2006) [FLAC] | Black Metal

Нові коментарі

Нова тема   Відповісти
Останній раз роздавалося shtoz (2011-12-22)
Автор Повідомлення
aimtoknow 
VIP


З нами з: 29.11.09
Востаннє: 14.04.11
Повідомлень: 578

2010-07-06 18:04  
Knell - Серед вiчних холодiв (2006) [FLAC] | Black Metal


Стиль: Black Metal
Країна, місто: Україна, Київ
Сайти: Офіційний сайт

Видавець: Griffin Music
Виконавці:
Денис Верба - вокал, гітари, бас, програмування барабанів.
Пісні:
    1. Луна Безоднi Гiр
    2. The Wind's Tale
    3. Kingdom Of The Ice
    4. On My Wings Of Dreams
    5. Серед Вiчних Холодiв

Тривалість: 00:36:12
Мова: українська (1,5), англійська (2-4)
Аудіо-кодек: FLAC
Бітрейт: 993 кб/с
log
Exact Audio Copy V0.99 prebeta 4 from 23. January 2008

EAC extraction logfile from 19. June 2010, 0:32

Knell / Among Eternal Chills

Used drive : Optiarc DVD RW AD-7243S Adapter: 2 ID: 0

Read mode : Secure
Utilize accurate stream : Yes
Defeat audio cache : Yes
Make use of C2 pointers : No

Read offset correction : 48
Overread into Lead-In and Lead-Out : No
Fill up missing offset samples with silence : Yes
Delete leading and trailing silent blocks : No
Null samples used in CRC calculations : Yes
Used interface : Installed external ASPI interface

Used output format : User Defined Encoder
Selected bitrate : 768 kBit/s
Quality : High
Add ID3 tag : No
Command line compressor : C:\Program Files\Exact Audio Copy\FLAC\FLAC.EXE
Additional command line options : -6 -V -T "ARTIST=%a" -T "TITLE=%t" -T "ALBUM=%g" -T "DATE=%y" -T "TRACKNUMBER=%n" -T "GENRE=%m" -T "COMMENT=%e" %s -o %d

TOC of the extracted CD

Track | Start | Length | Start sector | End sector
---------------------------------------------------------
1 | 0:00.00 | 7:29.63 | 0 | 33737
2 | 7:29.63 | 5:27.12 | 33738 | 58274
3 | 12:57.00 | 8:03.47 | 58275 | 94546
4 | 21:00.47 | 7:03.33 | 94547 | 126304
5 | 28:04.05 | 8:07.74 | 126305 | 162903

Range status and errors

Selected range

Filename E:\Knell - Among Eternal Chills.wav

Peak level 98.8 %
Range quality 99.9 %
Test CRC ADEA3F4A
Copy CRC ADEA3F4A
Copy OK

No errors occurred

AccurateRip summary

Track 1 not present in database
Track 2 not present in database
Track 3 not present in database
Track 4 not present in database
Track 5 not present in database

None of the tracks are present in the AccurateRip database

End of status report
cue
REM DATE 2006
REM DISCID 43087C05
REM COMMENT "ExactAudioCopy v0.99pb4"
PERFORMER "Knell"
TITLE "Among Eternal Chills"
FILE "Knell - Among Eternal Chills.flac" WAVE
TRACK 01 AUDIO
TITLE "Echoes From The Khud"
PERFORMER "Knell"
FLAGS DCP
INDEX 01 00:00:00
TRACK 02 AUDIO
TITLE "The Wind's Tale"
PERFORMER "Knell"
FLAGS DCP
INDEX 00 07:27:63
INDEX 01 07:29:63
TRACK 03 AUDIO
TITLE "Kingdom Of The Ice"
PERFORMER "Knell"
FLAGS DCP
INDEX 00 12:55:00
INDEX 01 12:57:00
TRACK 04 AUDIO
TITLE "On My Wings Of Dreams"
PERFORMER "Knell"
FLAGS DCP
INDEX 00 20:58:47
INDEX 01 21:00:47
TRACK 05 AUDIO
TITLE "Among Eternal Chills"
PERFORMER "Knell"
FLAGS DCP
INDEX 00 28:02:05
INDEX 01 28:04:05
Джерело:
Також на Гуртом можна завантажити:
Додаткова інформація:
Рецензія на альбом:
Минуло багато років з того часу, як світ побачив останній на той час альбом київського проекту KNELL. Здавалося, що ми вже ніколи більше не почуємо цікавої музики колективу. Багато хто взагалі забув про таку назву, а ще більше її ніколи не знали... Та незважаючи ні на що KNELL повертається, сильніший ніж коли-небудь.
Після перших кількох прослуховувань альбому в мене в голові непохитно укорінилася думка, що музику написав не Верба, а ніхто інший як Abbath. Так-так, з IMMORTAL. Відкриває диск одна з найкращих пісень на альбомі - "Луна Безодні Гір". Крізь завивання вітру впевнено вимальовується та набирає форм першокласний нордичний риф. Далі додається вокал, до якого спершу дещо важко звикнути, але через деякий час до нього пристосовуєшся. Проте найцікавіше в цій речі це соло. То воно якесь ламане, то нагадує METALLICA, а то набуває піднесених героїчно-епічних слов'янських форм. "The Wind's Tale", як на мене, найміцніша пісня на диску. Вплив IMMORTAL настільки сильний, що вступний риф легко зміг би опинитися на якомусь з альбомів Безсмертних, і ніхто б нічого не помітив. Основна мелодія дуже мелодійна і гарна, захоплює дух. Клавішні моменти спочатку можуть здатися дещо "не з тої опери", але й до цього з часом звикаєш. Подібні емоції я відчував колись слухаючи IMMORTAL "At The Heart Of Winter". "Kingdom Of The Ice" - річ дещо іншої стилістики, та мені сподобалась менше ніж попередні. Темп більш розмірений, вокал теж зовсім інший. Під кінець з'являються чисті вокали, мелодика змінюється. І ось після спокійного клавішного закінчення ми знову чуємо чудовий риф, який легко може позмагатись з творчістю норвезьких братів по розуму. Не порівняти ці рифи з IMMORTAL, як на мене було би просто некоректним. Це про пісню "On My Wings Of Dreams". Це теж одна з найміцніших речей на альбомі. Посередині знову можемо чути спокійний перехід. І довершує альбом гіпнотична повільна балада "Серед Вічних Холодів". Протягом усієї пісні можна чути чудові соло.
Підсумовуючи цей альбом варто сказати, що гурт дуже сильно прогресував з часів попередньої роботи. В даному випадку - в кращий бік. Якщо дивитися більш узагальнено та глобально - цей опус являє собою дуже цілісний та добротний зразок українського блеку. Але це не той, усім добре відомий блек харківської школи, а щось діаметрально протилежне, самобутнє. Україні на сьогодні катастрофічно не вистачає якісної правильної музики. Навіть незважаючи на велику схожість з IMMORTAL цей альбом має своє обличчя. Дещо слабкою ланкою можна назвати хіба що лірику та ідеологічне направлення гурту. Тексти, на жаль, не мають такої художньої цінності, як музика. Окремої уваги заслуговує оформлення та якість диску. Я був вражений чудовим буклетом з масою гарних фотографій холодних зимніх гір. Музика сприймається як єдине ціле з дизайном, і я не можу уявити собі прослуховування цього альбому в mp3 без графічного супроводу. Якість поліграфії на дуже високому рівні. Я з нетерпінням чекатиму на новий альбом KNELL - дуже цікаво, які зміни привнесе в музику час.
P.S. Кожний фанат IMMORTAL просто зобов'язаний мати цей диск в своїй колекції.
---
рецензія взята з breidablik-zine.narod.ru
Якщо Ви справді бажаєте підтримати українське - після прослуховування, якщо музика вам сподобалась, придбайте ліцензійний диск. Підтримаймо вітчизняних виконавців!


Срібний реліз (на рейтинг впливає 50% завантаженого)
 Трекер:    Зареєстрований   

Завантажити / скачати українську музику



відео для новачків



 Зареєстрований:   2010-07-06 18:04
 Розмір:   257 MB 
 Оцінка музики:   10/10 (Голосів: 3)
   
Forestelf 
VIP


З нами з: 06.02.09
Востаннє: 21.01.16
Повідомлень: 894

2010-07-14 17:56  
Дякую, гурт дуже сподобався.
Lev 
VIP


З нами з: 14.10.09
Востаннє: 05.12.16
Повідомлень: 1819

2010-07-29 11:47  
ще б скани буклету, про який так смачно написано в рецензії Happy
Lev 
VIP


З нами з: 14.10.09
Востаннє: 05.12.16
Повідомлень: 1819

2010-07-29 16:25  
остання пісня реально заворожує, якшо не вслухуватись в не надто досконалий текст
і взагалі альбом цілком бадьорий

aimtoknow 
VIP


З нами з: 29.11.09
Востаннє: 14.04.11
Повідомлень: 578

2010-08-02 21:50  
Lev написано:
ще б скани буклету, про який так смачно написано в рецензії

Як знайду, то додам в тему.

Lev 
VIP


З нами з: 14.10.09
Востаннє: 05.12.16
Повідомлень: 1819

2010-08-03 01:20  
aimtoknow написано:
Як знайду, то додам в тему.


буде круто!

imonko 
Відео Гуртом - фільмокрай
Відео Гуртом - фільмокрай


З нами з: 20.07.08
Востаннє: 31.10.16
Повідомлень: 7309

2011-10-30 16:33  
прохання повернутись на роздачу
Oleksa9 
Поважний учасник


З нами з: 17.05.12
Востаннє: 05.12.16
Повідомлень: 225

2012-05-18 19:44  
Хтось роздасть чи з джерела забирати?
Oleksa9 
Поважний учасник


З нами з: 17.05.12
Востаннє: 05.12.16
Повідомлень: 225

2012-08-04 09:10  
Дякую! Завантажив з джерела!
Ваш часовий пояс: GMT + 2 Години

Нова тема   Відповісти