Завантажити та скачати торренти українською


Привид Опери / The Phantom of the Opera (2004) 720p Ukr/Eng | Sub Ukr/Eng

Нові коментарі

Нова тема   Відповісти
Автор Повідомлення
SainTManiac 
VIP


З нами з: 17.09.09
Востаннє: 20.11.16
Повідомлень: 427

2010-07-05 17:06  
Привид Опери / The Phantom of the Opera (2004) 720p Ukr/Eng | Sub Ukr/Eng


«Listen to the Music of the Night»


Жанр: драма, мюзикл, мелодрама, трилер / drama, musical, romance, thriller

Країна: США, Великобританія / USA, UK

7.2/10 (42,215 голосів)
9.19/10 (544 голосів)

Кіностудія / кінокомпанія: Odyssey Entertainment, Warner Bros. Pictures, Really Useful Films, Scion Films, Joel Schumacher Productions

Режисер: Джоел Шумахер (Joel Schumacher)

Актори: Джерард Батлер, Емі Россам, Патрік Уїлсон, Міранда Річардсон, Мінні Драйвер, Киаран Хиндс, Саймон Келлоу, Віктор Макгуайр, Дженніфер Еллісон, Мюррей Мелвін

Офіційний сайт: www.thephantomoftheopera.com

Офіційний трейлер: на YouTube


Сюжет:
Таємничий голос волає до молодої оперної співачки Крістін з похмурих надр величної Паризької опери. Лише одна людина в трупі знає, що невидимий покровитель і наставник Крістін, навідний жах на артистів, - спотворений геній музики, закоханий в юну красуню.
Примара в масці зробить все, щоб вона стала примадонною сцени, проте у нього є владний суперник - багатий віконт Рауль де Шаньі. Ставши полонянкою любовного трикутника, Крістіна повинна зробити вибір. Але пристрасті, що закрутили голову, люті ревнощі і божевільна любов вже ухвалили полюбленим свій немилосердний вирок.



Тривалість: 02:21:04

Якість:

Відео:
кодек: MPEG-4 AVC /
розмір кадру: 1280х534 @ 23.976fps
бітрейт: 6550 кб/с

Аудіо # 1:
мова: українська || велике спасибі Romario_O
переклад: двоголосий закадровий
кодек: 5.1
бітрейт: 384 кб/с

Аудіо # 2:
мова: англійська
переклад: оригінал
кодек: 5.1
бітрейт: 768 кб/с

Переклад і озвучення виконано:


Субтитри:
мова: українська, англійська
тип: програмні (м'які)
формат: *.srt, ass


Скріншоти:
-=+++=-

MediaInfo

General
Complete name : V:\The Phantom of the Opera (2004) 720p [Ukr, Eng] [Hurtom & HDClub] by SainTManiac.mkv
Format : Matroska
File size : 7.58 GiB
Duration : 2h 21mn
Overall bit rate : 7 691 Kbps
Movie name : The Phantom of the Opera [Привид опери] (2004) 720p - Release for Hurtom by SainTManiac
Encoded date : UTC 2010-07-05 14:45:52
Writing application : mkvmerge v4.0.0 ('The Stars were mine') збірка від Jun 6 2010 16:18:42
Writing library : libebml v1.0.0 + libmatroska v1.0.0
Cover : Yes / Yes / Yes

Video
ID : 1
Format : AVC
Format/Info : Advanced Video Codec
Format profile : [email protected]
Format settings, CABAC : Yes
Format settings, ReFrames : 5 frames
Muxing mode : Container [email protected]
Codec ID : V_MPEG4/ISO/AVC
Duration : 2h 20mn
Bit rate : 6 399 Kbps
Nominal bit rate : 6 550 Kbps
Width : 1 280 pixels
Height : 534 pixels
Display aspect ratio : 2.35:1
Frame rate : 23.976 fps
Resolution : 24 bits
Colorimetry : 4:2:0
Scan type : Progressive
Bits/(Pixel*Frame) : 0.390
Stream size : 6.30 GiB (83%)
Title : The Phantom of the Opera (2004) 720p - CtrlHD
Writing library : core 58 svn-736M
Encoding settings : cabac=1 / ref=5 / deblock=1:-3:-3 / analyse=0x3:0x133 / me=umh / subme=7 / me-prepass=0 / brdo=1 / mixed_ref=1 / me_range=16 / chroma_me=1 / trellis=1 / 8x8dct=1 / cqm=2 / deadzone=21,11 / chroma_qp_offset=0 / threads=6 / nr=0 / decimate=1 / mbaff=0 / bframes=3 / b_pyramid=1 / b_adapt=1 / b_bias=0 / direct=1 / wpredb=1 / bime=1 / keyint=250 / keyint_min=25 / scenecut=40(pre) / rc=2pass / bitrate=6550 / ratetol=1.0 / rceq='blurCplx^(1-qComp)' / qcomp=1.00 / qpmin=10 / qpmax=51 / qpstep=4 / cplxblur=20.0 / qblur=0.5 / ip_ratio=1.40 / pb_ratio=1.30 / aq=1:0.5:13.0

Audio #1
ID : 2
Format : AC-3
Format/Info : Audio Coding 3
Codec ID : A_AC3
Duration : 2h 21mn
Bit rate mode : Constant
Bit rate : 384 Kbps
Channel(s) : 6 channels
Channel positions : Front: L C R, Surround: L R, LFE
Sampling rate : 48.0 KHz
Stream size : 388 MiB (5%)
Title : Двоголосий закадровий (1+1) | 5.1 @ 384 kbps
Language : Ukrainian

Audio #2
ID : 3
Format :
Format/Info : Digital Theater Systems
Codec ID : A_DTS
Duration : 2h 21mn
Bit rate mode : Constant
Bit rate : 755 Kbps
Channel(s) : 6 channels
Channel positions : Front: L C R, Surround: L R, LFE
Sampling rate : 48.0 KHz
Resolution : 24 bits
Stream size : 761 MiB (10%)
Title : Original | 5.1 @ 768 kbps

Text #1
ID : 4
Format : UTF-8
Codec ID : S_TEXT/UTF8
Codec ID/Info : UTF-8 Plain Text
Language : Ukrainian

Text #2
ID : 5
Format : ASS
Codec ID : S_TEXT/ASS
Codec ID/Info : Advanced Sub Station Alpha

Menu
00:00:00.000 : en:00:00:00.000
00:04:46.244 : en:00:04:46.244
00:07:32.742 : en:00:07:32.742
00:13:56.585 : en:00:13:56.585
00:17:29.673 : en:00:17:29.673
00:22:21.423 : en:00:22:21.423
00:26:00.599 : en:00:26:00.599
00:28:35.380 : en:00:28:35.380
00:30:59.273 : en:00:30:59.273
00:34:33.320 : en:00:34:33.320
00:41:09.007 : en:00:41:09.007
00:43:46.914 : en:00:43:46.914
00:47:35.476 : en:00:47:35.476
00:55:02.673 : en:00:55:02.673
00:58:29.922 : en:00:58:29.922
01:03:05.447 : en:01:03:05.447
01:05:50.195 : en:01:05:50.195
01:08:45.578 : en:01:08:45.578
01:14:22.373 : en:01:14:22.373
01:16:43.015 : en:01:16:43.015
01:26:03.658 : en:01:26:03.658
01:30:18.037 : en:01:30:18.037
01:33:49.039 : en:01:33:49.039
01:37:56.703 : en:01:37:56.703
01:41:42.136 : en:01:41:42.136
01:45:46.840 : en:01:45:46.840
01:48:57.697 : en:01:48:57.697
01:54:29.570 : en:01:54:29.570
01:57:04.182 : en:01:57:04.182
02:01:53.596 : en:02:01:53.596
02:07:38.609 : en:02:07:38.609
02:11:45.146 : en:02:11:45.146
Джерело:
Ріп від CtrlHD
&

Особиста оцінка: 0 - не дивився, але, кажуть, для перегляду з дівчино/дружиною саме те!

Розмір:


Срібний реліз (на рейтинг впливає 50% завантаженого)
 Трекер:    Зареєстрований   

Завантажити / скачати фільм українською



відео для новачків



 Зареєстрований:   2010-07-05 17:08
 Розмір:   7.58 GB 
 Оцінка фільму:   8.2/10 (Голосів: 18)
   
Інші релізи
Віктор 
Відео Гуртом - субтитрування
Відео Гуртом - субтитрування


З нами з: 09.01.10
Востаннє: 04.12.16
Повідомлень: 8663

2012-01-18 02:13  
Прохання підтвердити чи є тут субтитри які вказані в оформленні.
leroykendall 
Модератор HD


З нами з: 03.01.11
Востаннє: 20.11.16
Повідомлень: 749

2012-01-18 11:56  
w2958l
Додав МедіаІнфо в опис. Субтитри є. Але англійські формата ass.
Також збережені чаптери.

Віктор 
Відео Гуртом - субтитрування
Відео Гуртом - субтитрування


З нами з: 09.01.10
Востаннє: 04.12.16
Повідомлень: 8663

2012-01-18 14:34  
leroykendall написано:
Додав МедіаІнфо в опис. Субтитри є. Але англійські формата ass.

Дякую, окремо респект за медіаінфо. Дописав саби в назву теми.

dinosaurus 
Частий відвідувач


З нами з: 13.12.10
Востаннє: 05.11.16
Повідомлень: 36

2012-03-24 08:35  
Люди, станьте, будь-ласка, на роздачу!

Фільм, супер, моя мама хоче подивитись ще раз, а в мене є тільки паршива копія на 700 МБ з рос. дубяжем (якість хіба для мобіли годиться), не хотілось би їй таку фігню показувати Sad (1)

PS: Качаю не тільки подивитись залишусь на роздачі, на рік мінімум, хіба би комп здох тоді менше, але він в перкрасному стані хіба трохи запилючений Wink (1)

leroykendall 
Модератор HD


З нами з: 03.01.11
Востаннє: 20.11.16
Повідомлень: 749

2012-03-24 09:23  
dinosaurus
Залишайтесь на завантаженні як мога довше - повинно скачати.

Ваш часовий пояс: GMT + 2 Години

Нова тема   Відповісти