Завантажити та скачати торренти українською


Winter Depression - ...твої стомлені очі... (2009) [APE] | Depressive Black Metal

Нові коментарі

Нова тема   Відповісти
Останній раз роздавалося pal_ch_k (2013-08-15)
Автор Повідомлення
aimtoknow 
VIP


З нами з: 29.11.09
Востаннє: 14.04.11
Повідомлень: 578

2010-07-04 08:35  
Winter Depression - ...твої стомлені очі... (2009) [APE] | Depressive Black Metal


Стиль: Depressive Black Metal
Країна, місто: Україна, Кременчук
Сайти:
Видавець: Depressive Illusions Records
Виконавці:
A. - усі інструменти
Пісні:
    1. Твої Стомлені Очі
    2. Доторкнутись До Небес
    3. На Руїнах Зламаних Життів
    4. Я Плачу З Тобою Земля Моя...
    5. Проза Скорботи
    6. Думи Мої...Їм Немає Спокою
    7. Меланхолія
    8. В Асгарді Виє Вовк
    9. 17.03.09
    10. Сльози Осені

Тривалість: 00:49:15
Мова: усі композиції інструментальні
Аудіо-кодек: APE
Бітрейт: ~ 937 кб/с
log
Exact Audio Copy V0.99 prebeta 5 from 4. May 2009

EAC extraction logfile from 13. May 2010, 21:02

Winter Depression / Твої Стомлені Очі

Used drive : SONY CD-RW CRX320E Adapter: 1 ID: 0

Read mode : Secure
Utilize accurate stream : Yes
Defeat audio cache : Yes
Make use of C2 pointers : No

Read offset correction : 6
Overread into Lead-In and Lead-Out : No
Fill up missing offset samples with silence : Yes
Delete leading and trailing silent blocks : No
Null samples used in CRC calculations : Yes
Used interface : Installed external ASPI interface

Used output format : Monkey's Audio Lossless Encoder
Selected bitrate : Fast Lossless Compression
Quality : High
Add ID3 tag : No
Command line compressor : C:\Program Files\Monkey's Audio\MAC.exe

TOC of the extracted CD

Track | Start | Length | Start sector | End sector
---------------------------------------------------------
1 | 0:00.00 | 8:02.42 | 0 | 36191
2 | 8:02.42 | 4:18.36 | 36192 | 55577
3 | 12:21.03 | 5:33.02 | 55578 | 80554
4 | 17:54.05 | 4:12.68 | 80555 | 99522
5 | 22:06.73 | 2:49.44 | 99523 | 112241
6 | 24:56.42 | 4:34.41 | 112242 | 132832
7 | 29:31.08 | 4:55.08 | 132833 | 154965
8 | 34:26.16 | 2:58.00 | 154966 | 168315
9 | 37:24.16 | 8:38.59 | 168316 | 207224
10 | 46:03.00 | 3:12.43 | 207225 | 221667

Range status and errors

Selected range

Filename D:\dedho\Winter Depression - Твої Стомлені Очі\Winter Depression - Твої Стомлені Очі.wav

Peak level 100.0 %
Range quality 99.9 %
Test CRC 52D58EB3
Copy CRC 52D58EB3
Copy OK

No errors occurred

AccurateRip summary

Track 1 not present in database
Track 2 not present in database
Track 3 not present in database
Track 4 not present in database
Track 5 not present in database
Track 6 not present in database
Track 7 not present in database
Track 8 not present in database
Track 9 not present in database
Track 10 not present in database

None of the tracks are present in the AccurateRip database

End of status report
cue
REM GENRE "Black Metal"
REM DATE 2009
REM DISCID 960B8B0A
REM COMMENT "ExactAudioCopy v0.99pb5"
PERFORMER "Winter Depression"
TITLE "Твої Стомлені Очі"
FILE "Winter Depression - Твої Стомлені Очі.ape" WAVE
TRACK 01 AUDIO
TITLE "Твої Стомлені Очі"
PERFORMER "Winter Depression"
INDEX 01 00:00:00
TRACK 02 AUDIO
TITLE "Доторкнутись До Небес"
PERFORMER "Winter Depression"
INDEX 01 08:02:42
TRACK 03 AUDIO
TITLE "На Руїнах Зламаних Життів"
PERFORMER "Winter Depression"
INDEX 01 12:21:03
TRACK 04 AUDIO
TITLE "Я Плачу З Тобою Земля Моя..."
PERFORMER "Winter Depression"
INDEX 01 17:54:05
TRACK 05 AUDIO
TITLE "Проза Скорботи"
PERFORMER "Winter Depression"
INDEX 01 22:06:73
TRACK 06 AUDIO
TITLE "Думи Мої...Їм Немає Спокою"
PERFORMER "Winter Depression"
INDEX 01 24:56:42
TRACK 07 AUDIO
TITLE "Меланхолія"
PERFORMER "Winter Depression"
INDEX 01 29:31:08
TRACK 08 AUDIO
TITLE "В Асгарді Виє Вовк"
PERFORMER "Winter Depression"
INDEX 01 34:26:16
TRACK 09 AUDIO
TITLE "17.03.09"
PERFORMER "Winter Depression"
INDEX 01 37:24:16
TRACK 10 AUDIO
TITLE "Сльози Осені"
PERFORMER "Winter Depression"
INDEX 01 46:03:00
Джерело:
Також на Гуртом можна завантажити:
Якщо Ви справді бажаєте підтримати українське - після прослуховування, якщо музика вам сподобалась, придбайте ліцензійний диск. Підтримаймо вітчизняних виконавців!


Срібний реліз (на рейтинг впливає 50% завантаженого)
 Трекер:    Зареєстрований   

Завантажити / скачати українську музику



відео для новачків



 Зареєстрований:   2010-07-04 08:35
 Розмір:   335 MB 
 Оцінка музики:   10/10 (Голосів: 4)
   
korosy 
Новенький


З нами з: 20.07.10
Востаннє: 17.11.16
Повідомлень: 4

2010-07-23 22:16  
що скажете? варто слухати? на щось схоже?
aimtoknow 
VIP


З нами з: 29.11.09
Востаннє: 14.04.11
Повідомлень: 578

2010-07-25 10:00  
korosy написано:
що скажете? варто слухати? на щось схоже?

Якщо тобі подобається Black - то варто.

Oleksa9 
Поважний учасник


З нами з: 17.05.12
Востаннє: 04.12.16
Повідомлень: 225

2012-06-01 21:43  
Можна ознайомитись?
Мілько 
Новенький


З нами з: 27.12.09
Востаннє: 02.12.16
Повідомлень: 6

2013-03-20 17:13  
Сильна річ. Особливо 17.03.09
Ваш часовий пояс: GMT + 2 Години

Нова тема   Відповісти