Завантажити та скачати торренти українською


Крода - Live in Lemberg [live] (2008) [APE] | Pagan / Folk / Black Metal

Нові коментарі

Нова тема   Відповісти
Останній раз роздавалося aimtoknow (2011-02-05)
Автор Повідомлення
aimtoknow 
VIP


З нами з: 29.11.09
Востаннє: 14.04.11
Повідомлень: 578

2010-07-03 14:28  
Крода - Live in Lemberg [live] (2008) [APE] | Pagan / Folk / Black Metal


Стиль: Pagan, Folk, Black Metal
Країна, місто: Україна, Дніпропетровськ/Львів
Сайти: Офіційний сайт
Видавець: HAMMERMARK ART Records
Виконавці:
Viterzgir – гітара, акустична гітара, чистий вокал, сопілка, окарина, дримба, трембіта, ріг, перкусія
Eisenslav – вокал, дримба, трембіта, ріг
Beralb – бас гітара
Serejen’ - гітара, акустична гітара
Olgerd - клавішні
AlgizTur - барабани
Пісні:
    1. Крода (вступ)
    2. З-за Обрію
    3. Як Сталь Співала у Пожарах...
    4. Вітер з Гір (Весна Йде)
    5. Молотом Духу та Єдністю Крові...
    6. Блискавичної Сталі Помсти Полум'яна Міць
    7. ...Де Хмари Тінню Гори обіймають...
    8. Поплач мені, Річко... (зрада князя Володимира)
    9. Багряна Смерть (Absurd cover)
    10. Мак Цвіте (Частина IІ)
    11. Ой на Горі...
    12. Багряна Смерть (біс)
    13. Вітер з Гір (біс)

Тривалість: 01:00:47
Мова: українська (2-5, 8-13), інструментальні (1, 6, 7)
Аудіо-кодек: APE
Бітрейт: ~ 1042 кб/с
log
Отчёт EAC об извлечении, выполненном 31. января 2009, 17:11 для диска:
Kroda / Live In Lemberg

Дисковод: PHILIPS SPD2414T Adapter: 2 ID: 0
Режим чтения: Достоверный (C2: нет, Точный поток: да, Отключение кэша: да)
Коррекция смещения при чтении: 6
Способность читать области Lead-in и Lead-out : Нет

Выходной формат: Внутренние WAV-операции
44.100 Гц; 16 бит; стерео

Другие параметры:
Заполнение пропущенных сэмплов тишиной : Да
Удаление блоков с тишиной в начале и конце : Нет
Встроенный Win32-интерфейс для Win NT/2000

Характеристики диапазона извлечения и сообщения об ошибках
Выбранный диапазон
Имя файла C:\Music MP3\Kroda - Live In Lemberg.wav

Пиковый уровень 100.0 %
Качество диапазона 100.0 %
CRC 403E39A3
Копирование... OK

Ошибок не произошло

Конец отчёта
cue
REM GENRE "Pagan Metal"
REM DATE 2008
REM DISCID A90E3F0D
REM COMMENT "ExactAudioCopy v0.95b4"
PERFORMER "Kroda"
TITLE "Live In Lemberg"
FILE "Kroda - Live In Lemberg.wav" WAVE
TRACK 01 AUDIO
TITLE "Kroda (Intro)"
PERFORMER "Kroda"
INDEX 01 00:00:00
TRACK 02 AUDIO
TITLE "From Behind The Horizon"
PERFORMER "Kroda"
INDEX 01 01:44:00
TRACK 03 AUDIO
TITLE "How Steel Was Singing Through The Flames Of Fire"
PERFORMER "Kroda"
INDEX 01 07:16:00
TRACK 04 AUDIO
TITLE "Wind From The Mountains"
PERFORMER "Kroda"
INDEX 01 12:54:00
TRACK 05 AUDIO
TITLE "By A Hammer Of Spirit And Identity Of Blood"
PERFORMER "Kroda"
INDEX 01 20:23:37
TRACK 06 AUDIO
TITLE "Revenge Flaming Might of Blazing Steel"
PERFORMER "Kroda"
INDEX 01 27:09:74
TRACK 07 AUDIO
TITLE "Where Mountains are Embraced by Shadows"
PERFORMER "Kroda"
INDEX 01 28:39:74
TRACK 08 AUDIO
TITLE "Cry to Me, River..."
PERFORMER "Kroda"
INDEX 01 30:25:74
TRACK 09 AUDIO
TITLE "Der Scharlachrote Tod"
PERFORMER "Kroda"
INDEX 01 35:47:74
TRACK 10 AUDIO
TITLE "Poppyflowers are Blossoming (Chapter II)"
PERFORMER "Kroda"
INDEX 01 38:57:74
TRACK 11 AUDIO
TITLE "Oy na Hori..."
PERFORMER "Kroda"
INDEX 01 46:15:74
TRACK 12 AUDIO
TITLE "Der Scharlachrote Tod (Encore)"
PERFORMER "Kroda"
INDEX 01 50:43:36
TRACK 13 AUDIO
TITLE "Wind From The Mountains (Encore)"
PERFORMER "Kroda"
INDEX 01 53:29:36
Джерело:
Якщо Ви справді бажаєте підтримати українське - після прослуховування, якщо музика вам сподобалась, придбайте ліцензійний диск. Підтримаймо вітчизняних виконавців!


Срібний реліз (на рейтинг впливає 50% завантаженого)
 Трекер:    Зареєстрований   

Завантажити / скачати українську музику



відео для новачків



 Зареєстрований:   2010-07-03 14:28
 Розмір:   468 MB 
 Оцінка музики:   10/10 (Голосів: 2)
   
Tarasyk 
Відео Гуртом - фільмокрай
Відео Гуртом - фільмокрай


З нами з: 26.08.09
Востаннє: 28.11.16
Повідомлень: 5972

2010-07-03 15:54  
aimtoknow, прохання надати в оформленні лог-файл, а також лінки на інші альбоми
aimtoknow 
VIP


З нами з: 29.11.09
Востаннє: 14.04.11
Повідомлень: 578

2010-07-04 06:29  
Tarasyk написано:
aimtoknow, прохання надати в оформленні лог-файл, а також лінки на інші альбоми

Це вже мій шостий реліз Крода, і вперше прохання надати лог-файл. І у правилах оформлення муз. релізу ця вимога відсутня. На інших трекерах бачив подають як log так і cue файли. Мені додати лог-файл не важко, але думаю варто внести необхідні зміни у "Правила оформлення музичного релізу". Бо складається ситуація, коли реліз затверджується з такими вимогами, які має певний модератор. Думаю варто узагальнити ці критерії.
Сподіваюся це не буде сприйнято як придирання, а лише як побажання.
Перехресні посилання обов'язково будуть. Просто чекав, коли викладу усі наявні у себе альбоми.

Tarasyk 
Відео Гуртом - фільмокрай
Відео Гуртом - фільмокрай


З нами з: 26.08.09
Востаннє: 28.11.16
Повідомлень: 5972

2010-07-04 08:04  
aimtoknow написано:
Бо складається ситуація, коли реліз затверджується з такими вимогами, які має певний модератор.

Та нє... Просто правила створювалися давно, і вже не зовсім відповідають сучасності. А щоб їх переробити, у модерів не доходять руки. А щодо лог-файлу, то знову ж таки, це в правилах не прописано, але за його наявності в роздачі, дуже бажано це робити. Хтось із модерів звертає на це увагу, хтось - ні... Зараз над цим працюємо Happy

aimtoknow написано:
Перехресні посилання обов'язково будуть.

Вже бачу. Дякую. Тільки якщо можна, додайте ще посилання на MP3-альбоми, і було б взагалі супер - на відео. Щоб кожен бажаючий зайшов сюди і бачив усі релізи, що пов'язані з цим гуртом.

aimtoknow 
VIP


З нами з: 29.11.09
Востаннє: 14.04.11
Повідомлень: 578

2010-07-04 08:37  
Трохи згодом усе зроблю.
Ваш часовий пояс: GMT + 2 Години

Нова тема   Відповісти