Завантажити та скачати торренти українською


Крода / Велимор - Молотом Духу та Єдністю Крові [Split] (2006) [APE] | Pagan / Folk / Black Metal

Нові коментарі

Нова тема   Відповісти
Останній раз роздавалося aimtoknow (2011-02-05)
Автор Повідомлення
aimtoknow 
VIP


З нами з: 29.11.09
Востаннє: 14.04.11
Повідомлень: 578

2010-06-30 12:12  
Крода / Велимор - Молотом Духу та Єдністю Крові [Split] (2006) [APE] | Pagan / Folk / Black Metal


Стиль: Pagan / Folk / Black Metal
Країна, місто: Україна, Дніпропетровськ/Львів; Росія, Новомосковськ/Тула
Сайти: Крода - Офіційний сайт ; Велимор - Офіційний сайт

Видавець: Stellar Winter/Ancient Nation
Виконавці:
Крода:
Eisenslav - вокал, лірика
Viterzgir - гітара, бас-гітара, клавішні, труба, перкусія
Mstivoy (Velimor) - гостьовий вокал на 4 треку
---
Велимор:
Mstivoy - вокал, гітара
Radohorn - бас, флейта
Troskjender - барабани
Пісні:
    Крода:
    1. ...Де Хмари Тiнню Гори обiймають...
    2. Стрiла
    3. Смерть христа (Jesu Dod) (Burzum cover)
    4. Молотом Духу та Еднiстю Кровi
    ---
    Велимор:
    5. Умереть, чтобы Выжить / Кровью и Волей
    6. Туман

Тривалість: 00:50:27
Мова: українська (2, 4), російська (4-6), інструментальні (1)
Аудіо-кодек: APE
Бітрейт: ~ 968 кб/с
log
Exact Audio Copy V0.99 prebeta 3 from 28. July 2007

Отчёт EAC об извлечении, выполненном 6. мая 2008, 16:39

Kroda & Velimor / By a Hammer of Spirit and Identity of Blood

Дисковод: ASUS DRW-1612BL Adapter: 0 ID: 0

Режим чтения : Достоверность
Использование точного потока : Да
Отключение кэша аудио : Да
Использование указателей C2 : Нет

Коррекция смещения при чтении : 6
Способность читать области Lead-in и Lead-out : Нет
Заполнение пропущенных сэмплов тишиной : Да
Удаление блоков с тишиной в начале и конце : Нет
При вычислениях CRC использовались нулевые сэмплы : Да
Интерфейс : Установленный внешний ASPI-интерфейс

Выходной формат : Внутренние WAV-операции
Формат сэмплов : 44.100 Гц; 16 бит; стерео

TOC извлечённого CD

Трек | Старт | Длительность | Начальный сектор | Конечный сектор
---------------------------------------------------------------------
1 | 0:00.00 | 1:51.47 | 0 | 8371
2 | 1:51.47 | 10:53.33 | 8372 | 57379
3 | 12:45.05 | 8:42.13 | 57380 | 96542
4 | 21:27.18 | 11:27.18 | 96543 | 148085
5 | 32:54.36 | 11:08.60 | 148086 | 198245
6 | 44:03.21 | 6:24.32 | 198246 | 227077

Характеристики диапазона извлечения и сообщения об ошибках

Выбранный диапазон

Имя файла C:\Documents and Settings\dima\Мои документы\Music\Kroda & Velimor - By a Hammer of Spirit and Identity of Blood.wav

Пиковый уровень 100.0 %
Качество диапазона 100.0 %
CRC копии 2B724A1D
Копирование... OK

Ошибок не произошло

AccurateRip: сводка

Трек 1 точное извлечение (доверие 1) [450FE944]
Трек 2 точное извлечение (доверие 1) [5958D652]
Трек 3 точное извлечение (доверие 1) [86C8CBAB]
Трек 4 точное извлечение (доверие 1) [4561896F]
Трек 5 точное извлечение (доверие 1) [8E30B775]
Трек 6 точное извлечение (доверие 1) [EC939A36]

Все треки извлечены точно

Конец отчёта
cue
REM GENRE "Pagan Black Metal"
REM DATE 2006
REM DISCID 570BD306
REM COMMENT "ExactAudioCopy v0.99pb3"
PERFORMER "Kroda & Velimor"
TITLE "By a Hammer of Spirit and Identity of Blood"
FILE "Kroda & Velimor - By a Hammer of Spirit and Identity of Blood.ape" WAVE
TRACK 01 AUDIO
TITLE "...Where Mountains are Embraced by Shadows..."
PERFORMER "Kroda & Velimor"
FLAGS DCP
INDEX 01 00:00:00
TRACK 02 AUDIO
TITLE "The Arrow"
PERFORMER "Kroda & Velimor"
FLAGS DCP
INDEX 00 01:49:47
INDEX 01 01:51:47
TRACK 03 AUDIO
TITLE "Jesu Dod"
PERFORMER "Kroda & Velimor"
FLAGS DCP
INDEX 00 12:43:05
INDEX 01 12:45:05
TRACK 04 AUDIO
TITLE "By a Hammer of Spirit and Identity of Blood"
PERFORMER "Kroda & Velimor"
FLAGS DCP
INDEX 00 21:25:18
INDEX 01 21:27:18
TRACK 05 AUDIO
TITLE "To Die For To Survive, By Our Blood And Will"
PERFORMER "Kroda & Velimor"
FLAGS DCP
INDEX 00 32:52:36
INDEX 01 32:54:36
TRACK 06 AUDIO
TITLE "Fog"
PERFORMER "Kroda & Velimor"
FLAGS DCP
INDEX 00 44:01:21
INDEX 01 44:03:21
Джерело: Додаткова інформація:
Рецензія на альбом:
Спільний спліт від українського колективу Крода і російського Велимор був виданий за участю двох лейблів, українського Ancient Nation & російського Stellar Winter. Як завжди, релизі від Крода виконані у фірмовому стилі, з прекрасним артворком від Viterzgir, музиканта Крода. 24х сторінковий буклет наповнений не лише лірикою на російській/українській мовах, але і доповнений англійським перекладом, а також ефектними фото Карпат. Матеріал українського колективу дуже порадував. Інструментальне інтро ".. де Хмарі Тінню Гори Обіймають..." відмінно подає необхідну атмосферу усього диска - старовинне, язичницьке, неприборкане.. Композиція "Стріла", безперечно, краща на усьому 50ти хвилинному альбомі. Кавер на Burzum "Смерть Христа" запам'ятовується своїми басовими партіями. А взагалі - непоганий варіант безсмертний "Jesu Tod". "Молотом Духу та Єдністю Крові" не дуже характерна для групи. Композиція цікава за рахунок присутності запрошеного вокаліста, з відмінним від голосу Eisenslav вокалом. Давно здавалося, що подібна різноманітність піде лише на користь. Так і вийшло. Партії гостьового вокалу були виконані лідером Велимор, відомого як Мстивой. Крім того, на "Мотолом...". велика увага приділена партіям на соло гітарі, які просто неможливо не помітити.

Велимор - поєднання фолк метала з яскраво вираженою сопілкою і сируватого і трохи примітивного блек металу. Нормальний матеріал, проте якість запису і оригінальність далекі від хорошого балу. Інтерес викличе лише у великих прихильників подібної музики.
---
Рецензія взята з metallibrary.ru /переклад з російської/
Якщо Ви справді бажаєте підтримати українське - після прослуховування, якщо музика вам сподобалась, придбайте ліцензійний диск. Підтримаймо вітчизняних виконавців!


Срібний реліз (на рейтинг впливає 50% завантаженого)
 Трекер:    Зареєстрований   

Завантажити / скачати українську музику



відео для новачків



 Зареєстрований:   2010-06-30 12:17
 Розмір:   459 MB 
 Оцінка музики:   10/10 (Голосів: 4)
   
ssTAss 
Модератор музики


З нами з: 05.07.08
Востаннє: 06.12.16
Повідомлень: 10946

2010-06-30 14:05  
aimtoknow написано:

Велимор:
5. Умереть, чтобы Выжить / Кровью и Волей
6. Туман

на оф сайті
Цитата:
Велимор:
5. Кровью и Волей
6. Туман
7. Умереть, чтобы Выжить

чи то просто різні видання?

aimtoknow 
VIP


З нами з: 29.11.09
Востаннє: 14.04.11
Повідомлень: 578

2010-06-30 14:29  
Що показує плеєр (це ж каже і metal-archives.com):
тиць
Що каже обкладинка з диску:
тиць
Щось видавці намудрили. Видання було лише одне.

Ваш часовий пояс: GMT + 2 Години

Нова тема   Відповісти