Завантажити та скачати торренти українською


Крода - До небокраю життя... (2005) [APE] | Pagan / Folk / Black Metal

Нові коментарі

Нова тема   Відповісти
Останній раз роздавалося aimtoknow (2011-02-05)
Автор Повідомлення
aimtoknow 
VIP


З нами з: 29.11.09
Востаннє: 14.04.11
Повідомлень: 578

2010-06-29 09:37  
Крода - До небокраю життя... (2005) [APE] | Pagan / Folk / Black Metal


Стиль: Pagan, Folk, Black Metal
Країна, місто: Україна, Дніпропетровськ/Львів
Сайти: Офіційний сайт
Видавець: ANCIENT NATION Productions (перевидання 2006)
Виконавці:
Eisenslav - вокал, бас, перкусія, дримба, лірика
Viterzgir - гітара, клавішні, сопілка, трембіта, барабани
Пісні:
    1. Тризна
    2. Долі Шляхи
    3. Вітер з Гір (Весна Йде)
    4. З-за Обрію
    5. Пам'ять у Крові
    6. Як Сталь Співала у Пожарах...
    7. Лють Вовча (Ulfhednar)
    8. Віє Дим...
    9. Гнів (Honor cover)

Тривалість: 00:54:31
Мова: українська (2-9), інструментальні (1)
Аудіо-кодек: APE
Бітрейт: ~ 1048 кб/с
log
Отчёт EAC об извлечении, выполненном 21. января 2008, 11:53 для диска:
Kroda / Towards the Firmaments Verge of Life...

Дисковод: PIONEER DVD-RW DVR-112D Adapter: 0 ID: 1
Режим чтения: Достоверный (C2: нет, Точный поток: да, Отключение кэша: да)
Коррекция смещения при чтении: 48
Способность читать области Lead-in и Lead-out : Нет

Выходной формат: Внутренние WAV-операции
44.100 Гц; 16 бит; стерео

Другие параметры:
Заполнение пропущенных сэмплов тишиной : Да
Удаление блоков с тишиной в начале и конце : Нет
Установленный внешний ASPI-интерфейс

Характеристики диапазона извлечения и сообщения об ошибках
Выбранный диапазон
Имя файла C:\Downloads\торрентс\KRODA\2005 - Towards the Firmaments Verge of Life\Kroda - Towards the Firmaments Verge of Life....wav

Пиковый уровень 100.0 %
Качество диапазона 99.9 %
CRC 7123BE59
Копирование... OK

Ошибок не произошло

Конец отчёта

------------------------------------------------------------

Отчёт EAC об извлечении, выполненном 21. января 2008, 11:53 для диска:
Kroda / Towards the Firmaments Verge of Life...

Дисковод: PIONEER DVD-RW DVR-112D Adapter: 0 ID: 1
Режим чтения: Достоверный (C2: нет, Точный поток: да, Отключение кэша: да)
Коррекция смещения при чтении: 48
Способность читать области Lead-in и Lead-out : Нет

Выходной формат: Внутренние WAV-операции
44.100 Гц; 16 бит; стерео

Другие параметры:
Заполнение пропущенных сэмплов тишиной : Да
Удаление блоков с тишиной в начале и конце : Нет
Установленный внешний ASPI-интерфейс

Характеристики диапазона извлечения и сообщения об ошибках
Выбранный диапазон
Имя файла C:\Downloads\торрентс\KRODA\2005 - Towards the Firmaments Verge of Life\Kroda - Towards the Firmaments Verge of Life....wav

Пиковый уровень 100.0 %
Качество диапазона 99.9 %
CRC 7123BE59
Копирование... OK

Ошибок не произошло

Конец отчёта
cue
REM GENRE "Pagan Folk Black Metal"
REM DATE 2005
REM DISCID 850CC709
REM COMMENT "ExactAudioCopy v0.95b4"
PERFORMER "Kroda"
TITLE "Towards the Firmaments Verge of Life..."
FILE "Kroda - Towards the Firmaments Verge of Life....wav" WAVE
TRACK 01 AUDIO
TITLE "Trizna"
PERFORMER "Kroda"
FLAGS DCP
INDEX 01 00:00:00
TRACK 02 AUDIO
TITLE "Pathways of Fate"
PERFORMER "Kroda"
FLAGS DCP
INDEX 00 01:25:18
INDEX 01 01:27:18
TRACK 03 AUDIO
TITLE "Wind From the Mountains (Spring Is Coming)"
PERFORMER "Kroda"
FLAGS DCP
INDEX 00 08:51:32
INDEX 01 08:53:32
TRACK 04 AUDIO
TITLE "From Behind the Horizon"
PERFORMER "Kroda"
FLAGS DCP
INDEX 00 15:58:49
INDEX 01 16:00:49
TRACK 05 AUDIO
TITLE "A Memory In Blood"
PERFORMER "Kroda"
FLAGS DCP
INDEX 00 22:16:50
INDEX 01 22:18:50
TRACK 06 AUDIO
TITLE "How Steel Was Singing Through the Flames of Fire..."
PERFORMER "Kroda"
FLAGS DCP
INDEX 00 29:10:44
INDEX 01 29:12:44
TRACK 07 AUDIO
TITLE "Wolfish Rage (Ulfhednar)"
PERFORMER "Kroda"
FLAGS DCP
INDEX 00 34:25:72
INDEX 01 34:27:72
TRACK 08 AUDIO
TITLE "In the Smoke Breathe..."
PERFORMER "Kroda"
FLAGS DCP
INDEX 00 41:32:52
INDEX 01 41:34:52
TRACK 09 AUDIO
TITLE "Wrath (Honor cover)"
PERFORMER "Kroda"
FLAGS DCP
INDEX 00 48:08:64
INDEX 01 48:10:64
Джерело: Додаткова інформація:
Рецензія на альбом:
Другий повнометражний альбом чудового українського дуету на сьогодні вже не є його останньою роботою. Якось дуже вже швидко Ейзенслав з Вітерзгіром пишуть свої нові опуси, я за ними просто не встигаю. Ну та гаразд. Усьому свій час. Поки ж, порадію черговому їх чудовому твору. Язичницький блек-метал у КРОДИ звучить так, як, напевно повинна звучати ця музика в ідеалі: зберігаючи своє екстремально-металеве походження, наповнюючи цю форму істинно патріотичним змістом, доповнюючи основу запозиченими з фольклорної музики елементами. Хтось скаже, але вони ж, мовляв, нацисти. Дійсно, дніпропетровець Ейзенслав схоже належить до тих, кого прийнято називати "скінхедами", але йому вистачає розуму в цьому проекті залишити гасла RAC і white - power за його бортом. Ну а музика Вітерзгіра (біс, не знаю навіть, як цей псевдонім схиляти) лежить далеко від площини звичайного nsbm. Вона народжує у свідомості величні образи рідної йому карпатської природи, епізоди багатої історії цього краю, їх красу, через призму сприйняття людини, що щиро любить свою землю, і здатного виразити свою любов в музиці. "Пам'ять у Кровi" - просто приголомшливий приклад того, як ця любов перетвориться в Мистецтво. Те, як ідеально сполучено у КРОДИ жорсткість і лють сучасного блек-металу з м'якістю традиційних українських інструментів - мабуть, може служити зразком для усіх, хто намагається грати в цьому стилі. І навіть голос Ейзенслава, який усе наполегливо намагається бути трибуном, борцем, що зве до якихось бойових звершень і подвигів в ім'я "білої раси", не заважає цій музиці залишатися красивою. Хоча, на цьому альбомі, мабуть, вже не завжди. Про кавер HONOR я навіть говорити не буду, але і власні речі КРОДИ йому іноді вдається перетворити на щось RAC -подібне ("Як Сталь Спiвала у Пожарах...). І, проте, поки що музиці вдається домінувати над змістом, поки що вона залишається красивою більшою мірою, чим актуальною. Та і вірші Ейзенслава поки що утримуються в літературних рамках, не скачуючись до наці-пропаганди (не плутати "літературні рамки" з "політкоректністю", бо там, де з'являється "політкоректність" помирає культура). Але, тенденція, що намітилася на цьому альбомі, мені вже не подобається.
---
рецензія взята з darkside.ru /переклад з російської/


Якщо Ви справді бажаєте підтримати українське - після прослуховування, якщо музика вам сподобалась, придбайте ліцензійний диск. Підтримаймо вітчизняних виконавців!


Срібний реліз (на рейтинг впливає 50% завантаженого)
 Трекер:    Зареєстрований   

Завантажити / скачати українську музику



відео для новачків



 Зареєстрований:   2010-06-29 09:37
 Розмір:   422 MB 
 Оцінка музики:   10/10 (Голосів: 3)
   
Ваш часовий пояс: GMT + 2 Години

Нова тема   Відповісти