Завантажити та скачати торренти українською


Крода / Опричь - Легенда (Мак цвіте) / Волчья верность [Split] (2005) [APE] | Pagan / Folk / Black Metal

Нові коментарі

Нова тема   Відповісти
Останній раз роздавалося shtoz (2011-12-22)
Автор Повідомлення
aimtoknow 
VIP


З нами з: 29.11.09
Востаннє: 14.04.11
Повідомлень: 578

2010-06-28 18:38  
Крода / Опричь - Легенда (Мак цвіте) / Волчья верность [Split] (2005) [APE] | Pagan / Folk / Black Metal


Стиль: Pagan / Folk / Black Metal
Країна, місто: Україна, Дніпропетровськ/Львів; Росія, Рибінськ/Ярославль
Сайти: Крода - Офіційний сайт ; Опричь - Офіційний сайт

Видавець: Stellar Winter
Виконавці:
Крода:
Eisenslav - вокал, лірика
Viterzgir - гітара, бас-гітара, клавішні, труба, перкусія
---
Опричь:
Pan - вокал
Zhdana - вокал
Yaromir - гітара, вокал
Kolyada - гітара
Pustosvyat - бас
Triden - барабани
Пісні:
    Крода:
    1. Травневий День в Кільці Заграв
    2. Мак Цвіте (Частина I)
    3. Мак Цвіте (Частина IІ)
    4. Віки в Роздоллі
    ---
    Опричь:
    5. Месть
    6. Лесная песнь
    7. Белоозеро
    8. Волчья верность
    9. Плач

Тривалість: 00:47:22
Мова: українська (2, 3), російська (5-9), інструментальні (1, 4)
Аудіо-кодек: APE
Бітрейт: ~ 940 кб/с
log
Exact Audio Copy V0.99 prebeta 3 from 28. July 2007

Отчёт EAC об извлечении, выполненном 6. мая 2008, 18:07

Kroda Oprich / Legend, Wolfth Loyalty

Дисковод: ASUS DRW-1612BL Adapter: 0 ID: 0

Режим чтения : Достоверность
Использование точного потока : Да
Отключение кэша аудио : Да
Использование указателей C2 : Нет

Коррекция смещения при чтении : 6
Способность читать области Lead-in и Lead-out : Нет
Заполнение пропущенных сэмплов тишиной : Да
Удаление блоков с тишиной в начале и конце : Нет
При вычислениях CRC использовались нулевые сэмплы : Да
Интерфейс : Установленный внешний ASPI-интерфейс

Выходной формат : Внутренние WAV-операции
Формат сэмплов : 44.100 Гц; 16 бит; стерео

TOC извлечённого CD

Трек | Старт | Длительность | Начальный сектор | Конечный сектор
---------------------------------------------------------------------
1 | 0:00.00 | 4:02.01 | 0 | 18150
2 | 4:02.01 | 8:16.43 | 18151 | 55393
3 | 12:18.44 | 7:36.26 | 55394 | 89619
4 | 19:54.70 | 3:32.45 | 89620 | 105564
5 | 23:27.40 | 3:09.19 | 105565 | 119758
6 | 26:36.59 | 4:31.08 | 119759 | 140091
7 | 31:07.67 | 5:49.11 | 140092 | 166277
8 | 36:57.03 | 5:00.66 | 166278 | 188843
9 | 41:57.69 | 5:24.51 | 188844 | 213194

Характеристики диапазона извлечения и сообщения об ошибках

Выбранный диапазон

Имя файла C:\Documents and Settings\dima\Мои документы\Music\Kroda Oprich - Legend, Wolfth Loyalty.wav

Пиковый уровень 96.5 %
Качество диапазона 100.0 %
CRC копии 747A5D5C
Копирование... OK

Ошибок не произошло

AccurateRip: сводка

Трек 1 точное извлечение (доверие 1) [81A9BCCD]
Трек 2 точное извлечение (доверие 1) [4F802048]
Трек 3 точное извлечение (доверие 1) [F325177C]
Трек 4 точное извлечение (доверие 1) [942CCAD8]
Трек 5 точное извлечение (доверие 1) [72DDC779]
Трек 6 точное извлечение (доверие 1) [0F321819]
Трек 7 точное извлечение (доверие 1) [4B7C00CA]
Трек 8 точное извлечение (доверие 1) [379C3936]
Трек 9 точное извлечение (доверие 1) [4670CD2A]

Все треки извлечены точно

Конец отчёта
cue
REM GENRE Black/Folk
REM DISCID 840B1A09
REM COMMENT "ExactAudioCopy v0.99pb3"
PERFORMER "Kroda Oprich"
TITLE "Legend, Wolfth Loyalty"
FILE "Kroda Oprich - Legend, Wolfth Loyalty.ape" WAVE
TRACK 01 AUDIO
TITLE "The Day of May in Blazing Circle"
PERFORMER "Kroda Oprich"
INDEX 01 00:00:00
TRACK 02 AUDIO
TITLE "Poppyflowers are Blossoming (Chapter I)"
PERFORMER "Kroda Oprich"
INDEX 01 04:02:01
TRACK 03 AUDIO
TITLE "Poppyflowers are Blossoming (Chapter II)"
PERFORMER "Kroda Oprich"
INDEX 01 12:18:44
TRACK 04 AUDIO
TITLE "For the Ages in Wide Expanse"
PERFORMER "Kroda Oprich"
INDEX 01 19:54:70
TRACK 05 AUDIO
TITLE "Revenge"
PERFORMER "Kroda Oprich"
INDEX 01 23:27:40
TRACK 06 AUDIO
TITLE "Song of the Wood"
PERFORMER "Kroda Oprich"
INDEX 01 26:36:59
TRACK 07 AUDIO
TITLE "White Lake"
PERFORMER "Kroda Oprich"
INDEX 01 31:07:67
TRACK 08 AUDIO
TITLE "Wolfth Loyalty"
PERFORMER "Kroda Oprich"
INDEX 01 36:57:03
TRACK 09 AUDIO
TITLE "Lament"
PERFORMER "Kroda Oprich"
INDEX 01 41:57:69
Джерело: Додаткова інформація:
Рецензія на альбом:
"Легенда" Кроди - це величний твір в стилі pagan black. Навряд чи де ще ви знайдете стільки трагізму, одягненого у важкі блекові рифи і ембіентні відступи. Історія про козака-запорожця, загиблого в бою з татарами, викликає тремтіння в тілі кожного разу, коли занурюєшся в неї. Тексти не викликають ніяких нарікань, хіба що людині, мало знайомій з українською мовою, напевно, буде складно розчути усе, про що співає Ейзенслав. А співає він переважно напів-скримінгом, напів-чистим вокалом. Слава богу, що не каркаючим і не брутальним, що, звичайно ж, жодним чином не підійшло б сюди, і не дало можливості насолодитися лірикою. Лірика! Щемляче-гірка, пробиваюча сльозу, вона - стержень, вона - легенда. Проте музика повністю адекватна (математично) і виконана на "відмінно". Жорсткі гітарні проходи і бластбіти розбавлені різними духовими інструментами, і усе це має красиву атмосферну клавішну підкладку. Дві основні частини твору тривалі, але ні краплі не страждають затягнутістю або одноманітністю. Одним словом, чути дуже приємно, а слУхати - удвічі.
«Всім небайдужим...».
---
Рецензія взята з darkside.ru /переклад з російської/
Якщо Ви справді бажаєте підтримати українське - після прослуховування, якщо музика вам сподобалась, придбайте ліцензійний диск. Підтримаймо вітчизняних виконавців!


Срібний реліз (на рейтинг впливає 50% завантаженого)
 Трекер:    Зареєстрований   

Завантажити / скачати українську музику



відео для новачків



 Зареєстрований:   2010-06-28 18:38
 Розмір:   385 MB 
 Оцінка музики:   10/10 (Голосів: 2)
   
Forestelf 
VIP


З нами з: 06.02.09
Востаннє: 21.01.16
Повідомлень: 894

2010-06-28 18:45  
Цитата:
Тексти не викликають ніяких нарікань, хіба що людині, мало знайомій з українською мовою

і українською літературою. Текст пісні Мак Цвіте - однойменний вірш Михайла Стельмаха.

aimtoknow 
VIP


З нами з: 29.11.09
Востаннє: 14.04.11
Повідомлень: 578

2010-06-28 18:47  
Forestelf написано:
Текст пісні Мак Цвіте - однойменний вірш Михайла Стельмаха.

Є таке Happy .

Lev 
VIP


З нами з: 14.10.09
Востаннє: 09.12.16
Повідомлень: 1819

2010-06-29 00:14  
качну, хоч з цього спліту лише Крода подобається Happy
Легенда -шедевр.

aimtoknow 
VIP


З нами з: 29.11.09
Востаннє: 14.04.11
Повідомлень: 578

2010-06-29 07:34  
Lev написано:
качну, хоч з цього спліту лише Крода подобається

Аналогічно Happy .

Lev 
VIP


З нами з: 14.10.09
Востаннє: 09.12.16
Повідомлень: 1819

2010-06-30 07:42  
шось не йде роздача...
aimtoknow 
VIP


З нами з: 29.11.09
Востаннє: 14.04.11
Повідомлень: 578

2010-06-30 07:47  
Lev написано:
шось не йде роздача...

З цим невеличкі проблеми: не маю прямого IP. Почекай вже трохи. З понеділка виходжу на роботу, і буду роздавати паралельного з робочого комп'ютера (і Khors також); там з IP все нормально.

Lev 
VIP


З нами з: 14.10.09
Востаннє: 09.12.16
Повідомлень: 1819

2010-06-30 08:55  
aimtoknow
ага, дякую
Khors на ДВД теж качну

Forestelf 
VIP


З нами з: 06.02.09
Востаннє: 21.01.16
Повідомлень: 894

2010-06-30 10:54  
Трішки допоможу, якщо ви не проти!
aimtoknow 
VIP


З нами з: 29.11.09
Востаннє: 14.04.11
Повідомлень: 578

2010-06-30 12:02  
Forestelf написано:
Трішки допоможу, якщо ви не проти!

Дякую Happy !

Lev 
VIP


З нами з: 14.10.09
Востаннє: 09.12.16
Повідомлень: 1819

2010-06-30 12:22  
Forestelf

дякую, пішло добряче

aimtoknow 
VIP


З нами з: 29.11.09
Востаннє: 14.04.11
Повідомлень: 578

2010-09-25 15:13  
Підтримай рідних виконавців не лише словом:
тиць

Ваш часовий пояс: GMT + 2 Години

Нова тема   Відповісти