Завантажити та скачати торренти українською


Finist - Колекція (1 альбом + 1 EP) (2005-2006) [FLAC] | Black / Power / Folk Metal

Нові коментарі

Нова тема   Відповісти
Останній раз роздавалося klusek (2012-08-16)
Автор Повідомлення
Wolf1488 
VIP


З нами з: 20.10.09
Востаннє: 09.12.16
Повідомлень: 429

2010-06-27 20:08  
Finist - Колекція (1 альбом + 1 EP) (2005-2006) [FLAC] | Black / Power / Folk Metal



Стиль: Black, Power, Folk Metal
Країна, місто: Україна, Харків
Сайти:
Видавець: Stellar Winter, Eastside
Виконавці:
Saturious - Вокал, бас, акустична гітара, сопілка, кларнет, пікколо, клавішні (Nokturnal Mortum, Khors, Aryan Terrorism, Vetche, Lucifugum (Ukr), Piorun, Anthropolatri, Conquest (Ukr))
Roman Gavrilov - гітара
Wortherax - гітара (Nokturnal Mortum, Suppuration (Ukr))
Roman Philonenko - гітара
Munruthel - драм (Nokturnal Mortum, Lucifugum (Ukr), Suppuration (Ukr), Crystaline Darkness, Mistigo Varggoth Darkestra, Runes of Dianceht, Piorun, Kolo, Silentium (Ukr), Astrofaes, Vetche)

Сесійні і минулі учасники:

Alexei - скрипка
Dru.N.K. - труба
Anngrie - флейта
Альбоми:
2005 - Awakening (Stellar Winter)


1.For Mankind
2.Don't Wait For A Sign
3.Time Has Come
4.Battlefield
5.New Generation
6.We'll Change The World
7.Cranes Fly Away
8.The Awakening
9.Land Of The Free (Gamma Ray cover)

Тривалість: 00:44:00
Бітрейт: 1039 кб/с
Додаткова інформація: Limited to 500 copies.
log EAC
Exact Audio Copy V0.99 prebeta 5 from 4. May 2009

EAC extraction logfile from 19. April 2010, 18:01

Finist / Awakening

Used drive : HL-DT-STDVDRAM GSA-H10N Adapter: 0 ID: 1

Read mode : Secure
Utilize accurate stream : Yes
Defeat audio cache : Yes
Make use of C2 pointers : No

Read offset correction : 667
Overread into Lead-In and Lead-Out : No
Fill up missing offset samples with silence : Yes
Delete leading and trailing silent blocks : No
Null samples used in CRC calculations : Yes
Used interface : Installed external ASPI interface

Used output format : User Defined Encoder
Selected bitrate : 768 kBit/s
Quality : High
Add ID3 tag : No
Command line compressor : C:\Program Files\Exact Audio Copy\FLAC\FLAC.EXE
Additional command line options : -V -8 -T "artist=%a" -T "title=%t" -T "album=%g" -T "date=%y" -T "tracknumber=%n" -T "genre=%m" %s

TOC of the extracted CD

Track | Start | Length | Start sector | End sector
---------------------------------------------------------
1 | 0:00.00 | 3:53.74 | 0 | 17548
2 | 3:53.74 | 4:05.00 | 17549 | 35923
3 | 7:58.74 | 4:48.44 | 35924 | 57567
4 | 12:47.43 | 4:37.32 | 57568 | 78374
5 | 17:25.00 | 4:21.20 | 78375 | 97969
6 | 21:46.20 | 5:12.59 | 97970 | 121428
7 | 26:59.04 | 4:28.66 | 121429 | 141594
8 | 31:27.70 | 8:08.39 | 141595 | 178233
9 | 39:36.34 | 4:19.02 | 178234 | 197660

Range status and errors

Selected range

Filename H:\Rip\Finist - Awakening.wav

Peak level 100.0 %
Range quality 100.0 %
Copy CRC 3C4467D0
Copy OK

No errors occurred

AccurateRip summary

Track 1 not present in database
Track 2 not present in database
Track 3 not present in database
Track 4 not present in database
Track 5 not present in database
Track 6 not present in database
Track 7 not present in database
Track 8 not present in database
Track 9 not present in database

None of the tracks are present in the AccurateRip database

End of status report
2006 - Nightmares (EP) (Eastside)


1.Nightmares
2.On The Wings Of Scarlet Sunset (Nokturnal Mortum cover)
3.Victory
4.Battlefield
5.Raise Your Fist (Running Wild cover)
6.Steel Of Vengeance (Honor cover)
7.The Crown And The Ring (Manowar cover)

Тривалість: 00:37:00
Бітрейт: 1118 кб/с
log EAC

EAC extraction logfile from 21. August 2008, 11:04 for CD
Finist / Nightmares

Used drive : PIONEER DVD-RW DVR-106D Adapter: 1 ID: 1
Read mode : Secure with NO C2, accurate stream, disable cache
Read offset correction : 48
Overread into Lead-In and Lead-Out : No

Used output format : Internal WAV Routines
44.100 Hz; 16 Bit; Stereo

Other options :
Fill up missing offset samples with silence : Yes
Delete leading and trailing silent blocks : No
Installed external ASPI interface

Range status and errors
Selected range
Filename C:\Finist - Nightmares.wav

Peak level 100.0 %
Range quality 100.0 %
CRC A4FB0BF6
Copy OK

No errors occured

End of status report
Тривалість: 01:21:00
Мова: англійська
Аудіо-кодек: FLAC
Бітрейт: 1039-1118 кб/с
Джерело: Інтернет

Також на Толоці Ви можете знайти:
Finist - Дискографія (2 альбоми + 1 EP) (2002-2006) [MP3]


Якщо Ви справді бажаєте підтримати українське - після прослуховування, якщо музика вам сподобалась, придбайте ліцензійний диск. Підтримаймо вітчизняних виконавців!


Срібний реліз (на рейтинг впливає 50% завантаженого)
 Трекер:    Зареєстрований   

Завантажити / скачати українську музику



відео для новачків



 Зареєстрований:   2010-06-27 20:09
 Розмір:   658 MB 
 Оцінка музики:   10/10 (Голосів: 4)
   
bot 
робот


З нами з: 30.09.07
Востаннє: 26.05.05
Повідомлень: 16049

2010-06-27 20:11  
Тему перенесено з Поп, Естрада до форуму Рок, Метал, Альтернатива, Панк, СКА


Wolf1488

POMEO 
Відео Гуртом - запис з ТБ
Відео Гуртом - запис з ТБ


З нами з: 01.07.08
Востаннє: 10.12.16
Повідомлень: 785

2010-06-27 20:20  
Щиро дякую. Давно їх слухав в мп3 - тепер і в якості послухаю.
ssTAss 
Модератор музики


З нами з: 05.07.08
Востаннє: 10.12.16
Повідомлень: 10950

2010-06-28 00:50  
Wolf1488 написано:
Vocals, bass, acoustic guitar, sopilka

прошу перекласти назви інструментів

Wolf1488 
VIP


З нами з: 20.10.09
Востаннє: 09.12.16
Повідомлень: 429

2010-06-28 10:33  
ssTAss, перекладено
ssTAss 
Модератор музики


З нами з: 05.07.08
Востаннє: 10.12.16
Повідомлень: 10950

2010-06-28 15:17  
Wolf1488, не подивився.. не вказали видавців альбомів (на сканах мають бути)
Wolf1488 
VIP


З нами з: 20.10.09
Востаннє: 09.12.16
Повідомлень: 429

2010-06-28 15:22  
Видавці у дужках у назві альбому Stellar Winter і Eastside
ssTAss 
Модератор музики


З нами з: 05.07.08
Востаннє: 10.12.16
Повідомлень: 10950

2010-06-28 15:45  
Wolf1488 написано:
Видавці у дужках у назві альбому Stellar Winter і Eastside

упс, недогледів))
вірніше не зрозумів що то видавці
дякую за старання

POMEO 
Відео Гуртом - запис з ТБ
Відео Гуртом - запис з ТБ


З нами з: 01.07.08
Востаннє: 10.12.16
Повідомлень: 785

2010-06-28 18:48  
Клас! Сьогодні переслухав зкачане. Не знаю чим, але подобається мені їх творчість Happy
Ще раз дякую!
До речі, в пісні 6.Steel Of Vengeance (Honor cover) більшу частину співають українською

Ваш часовий пояс: GMT + 2 Години

Нова тема   Відповісти