Завантажити та скачати торренти українською


Вогнесміх - Країна У (2007) [FLAC] | Ethno Rock

Нові коментарі

Нова тема   Відповісти
Автор Повідомлення
Wolf1488 
VIP


З нами з: 20.10.09
Востаннє: 10.12.16
Повідомлень: 429

2010-06-26 18:50  
Вогнесміх - Країна У (2007) [FLAC] | Ethno Rock



Стиль: Ethno Rock
Країна, місто: Україна, Київ
Видавець: UKRmusic
Виконавці:
Роман Мороз – вокал, бандура
Анатолій Шмітько – вокал, бандура
Іван Григоряк – ритм-гітара
Юрій Лобатий – соло-гітара
Сергій Гавара – бас-гітара
Олег Микитюк – акордеон, клавіші
Юрій Захарчук – ударні
Вадим Борисенко – звукорежисер
Сергій Кайнов – вокал, ритм-гітара, перкусія, виконавчий директор гурту
Пісні:
    1. Діва огневиця
    2. Весна
    3. Вий, мій ранок...
    4. Зоряний герць
    5. Земле моя, вставай!
    6. Кому куди
    7. Заповіт орла
    8. Величальна вогню
    9. Вічна тайна
    10. Дурні
    11. Мрію
    12. Рідна Україна
log EAC
Отчёт EAC об извлечении, выполненном 17. мая 2010, 10:24 для диска:
Вогнесміх / Країна У

Дисковод: HL-DT-STDVD-ROM GDR-H30N Adapter: 0 ID: 0
Режим чтения: Достоверный (C2: нет, Точный поток: да, Отключение кэша: да)
Коррекция смещения при чтении: 6
Способность читать области Lead-in и Lead-out : Нет

Выходной формат: C:\Program Files\FLAC\flac.exe (Пользовательский кодировщик)
128 kBit/s
Дополнительные параметры: -8 -V -T "ARTIST=%a" -T "TITLE=%t" -T "ALBUM=%g" -T "DATE=%y" -T "TRACKNUMBER=%n" -T "GENRE=%m" -T "COMMENT=EAC FLAC -8" %s

Другие параметры:
Заполнение пропущенных сэмплов тишиной : Да
Удаление блоков с тишиной в начале и конце : Нет
Установленный внешний ASPI-интерфейс

Трек 1
Имя файла J:\Вогнесміх\01. Вогнесміх - Діва Огневиця.wav

Длина предзазора 0:00:02.00

Пиковый уровень 100.0 %
Качество трека 99.9 %
CRC теста 67AB54D9
CRC копии 67AB54D9
Копирование... OK

Трек 2
Имя файла J:\Вогнесміх\02. Вогнесміх - Весна.wav

Длина предзазора 0:00:02.00

Пиковый уровень 100.0 %
Качество трека 100.0 %
CRC теста 02D98470
CRC копии 02D98470
Копирование... OK

Трек 3
Имя файла J:\Вогнесміх\03. Вогнесміх - Вий, мій ранок.wav

Длина предзазора 0:00:02.00

Пиковый уровень 100.0 %
Качество трека 100.0 %
CRC теста 7290781E
CRC копии 7290781E
Копирование... OK

Трек 4
Имя файла J:\Вогнесміх\04. Вогнесміх - Зоряний герць.wav

Длина предзазора 0:00:02.00

Пиковый уровень 100.0 %
Качество трека 100.0 %
CRC теста 9EB74E8C
CRC копии 9EB74E8C
Копирование... OK

Трек 5
Имя файла J:\Вогнесміх\05. Вогнесміх - Земле моя, вставай!.wav

Длина предзазора 0:00:02.00

Пиковый уровень 100.0 %
Качество трека 100.0 %
CRC теста 740EFAE5
CRC копии 740EFAE5
Копирование... OK

Трек 6
Имя файла J:\Вогнесміх\06. Вогнесміх - Кому куди.wav

Длина предзазора 0:00:02.00

Пиковый уровень 100.0 %
Качество трека 100.0 %
CRC теста 6A319620
CRC копии 6A319620
Копирование... OK

Трек 7
Имя файла J:\Вогнесміх\07. Вогнесміх - Заповіт Орла.wav

Длина предзазора 0:00:02.00

Пиковый уровень 100.0 %
Качество трека 100.0 %
CRC теста B38C32EA
CRC копии B38C32EA
Копирование... OK

Трек 8
Имя файла J:\Вогнесміх\08. Вогнесміх - Величальна Вогню.wav

Длина предзазора 0:00:02.00

Пиковый уровень 100.0 %
Качество трека 99.9 %
CRC теста D48964E9
CRC копии D48964E9
Копирование... OK

Трек 9
Имя файла J:\Вогнесміх\09. Вогнесміх - Вічна тайна.wav

Длина предзазора 0:00:02.00

Пиковый уровень 100.0 %
Качество трека 99.9 %
CRC теста CA9721CF
CRC копии CA9721CF
Копирование... OK

Трек 10
Имя файла J:\Вогнесміх\10. Вогнесміх - Дурні.wav

Длина предзазора 0:00:02.00

Пиковый уровень 100.0 %
Качество трека 100.0 %
CRC теста 972ED7AD
CRC копии 972ED7AD
Копирование... OK

Трек 11
Имя файла J:\Вогнесміх\11. Вогнесміх - Мрію.wav

Длина предзазора 0:00:02.00

Пиковый уровень 100.0 %
Качество трека 99.9 %
CRC теста 04E16441
CRC копии 04E16441
Копирование... OK

Трек 12
Имя файла J:\Вогнесміх\12. Вогнесміх - Рідна Україна.wav

Длина предзазора 0:00:02.00

Пиковый уровень 100.0 %
Качество трека 99.9 %
CRC теста 36935EC5
CRC копии 36935EC5
Копирование... OK

Ошибок не произошло

Конец отчёта
Тривалість: 00:55:23
Мова: українська
Аудіо-кодек: FLAC
Бітрейт: 882-1039 кб/с
Джерело: Інтернет
Додаткова інформація:
Умка про альбом
Почнемо, мабуть, з переліку. Якщо Ви знаєте ім’я і творчість Олеся Бердника – слухайте, бо половину цього альбому засновано на його текстах. Якщо Вас цікавить творчість ТНМКонго – слухайте, бо тут живе одна їхня пісня – і пречудово себе, між іншим, почуває. Якщо Вам знайоме ім’я Олеся Журавчака (пам’ятаєте його платівки з назвою "Співуча сопілка"?) – слухайте неодмінно. Тим більше, що він тут не тільки музикант, а і творчій керівник. Якщо раніше він віртуозно, яскраво грав народні мелодії та їхні обробки, то тепер – це інша творчість, інший підхід. Але – з тою ж майстерністю, високим класом виконавства. Більше того – на додачу до народних духових інструментів, Олесь Журавчак освоїв ще й різноманітну перкусію. Всякого роду синтез є, власне, характерною ознакою музики Вогнесміху – оскільки вона має дві потужні основи. Одна – рок-звучання, сильне, глибоке, сучасне. Друга – етнічна складова, яка базується на приємно широкій палітрі автентичних інструментів. На щастя, майстерність виконання не поступається широті палітри – тому ця складова додає музиці смачного драйву і, водночас, якоїсь прозорості, легкості. Сильна легкість – таке сполучення в рок-музиці зустрічається нечасто, навіть коли це фольк-рок. Але тут все – саме так. Тож приємно, що цікава музика переплітається не з порожніми текстами, а зі справжніми думками. Глибина думок – різна, звичайно. Але у строкатому світі і думки мають бути строкатими – інакше життя перетворюється на існування біомаси...
про гурт
Гурт Вогнесміх створений при Екологічному культурно-просвітницькому громадському благодійному фонді "Звенигород" у 2005 році і працює у жанрі етно-рок. Основним стрижнем творчості колективу є продовження ідейних традицій феномену українського кобзарства в сучасному музичному просторі та збереження глибокої народності створюваних композицій.

Глибокий зміст і актуальність текстів, автентичні мотиви у поєднанні з сучасними ритмами, неповторне тембральне звучання оригінальних українських народних інструментів, таких як сопілка, бандура, дримба, тилинка, рубель, тулумбаси, коси, в ансамблі з інструментами рок-групи – електрогітарою, бас гітарою, клавішними та ударними, все це і є характеристикою творчості етно-рок гурту Вогнесміх.
Також на Толоці Ви можете знайти:
Вогнесміх - Країна У (2007) [MP3 320 кб/с]


Якщо Ви справді бажаєте підтримати українське - після прослуховування, якщо музика вам сподобалась, придбайте ліцензійний диск. Підтримаймо вітчизняних виконавців!


Срібний реліз (на рейтинг впливає 50% завантаженого)
 Трекер:    Зареєстрований   

Завантажити / скачати українську музику



відео для новачків



 Зареєстрований:   2010-06-26 18:50
 Розмір:   395 MB 
 Оцінка музики:   -/10 (Голосів: 0)
   
bot 
робот


З нами з: 30.09.07
Востаннє: 26.05.05
Повідомлень: 16051

2010-06-26 18:53  
Тему перенесено з Поп, Естрада до форуму Етно, Фольклор, Народна, Бардівська


Wolf1488

ssTAss 
Модератор музики


З нами з: 05.07.08
Востаннє: 11.12.16
Повідомлень: 10958

2010-06-26 19:58  
дайте в релізі посилання на МР3
Ваш часовий пояс: GMT + 2 Години

Нова тема   Відповісти