Завантажити та скачати торренти українською


Ґорґішелі - Ромбамбар (2010) [APE] | Pop-Rock

Нові коментарі

Нова тема   Відповісти
Останній раз роздавалося natashelka (2016-12-10)
Автор Повідомлення
zeron 
Відео Гуртом - підтримка та поширення
Відео Гуртом - підтримка та поширення


З нами з: 07.05.08
Востаннє: 10.12.16
Повідомлень: 83

2010-06-26 14:38  
Ґорґішелі - Ромбамбар (2010) [APE] | Pop-Rock



Стиль: Pop-Rock
Країна, місто: Україна, Львів
Сайти: Офіційний сайт
Видавець: Comp music
Виконавці:
Тамара Ґорґішелі (гітара, вокал)
Етері Ґорґішелі (бас-гітара, бек-вокал)
Олексій Слободян (ударні, перкусія)
Мар'ян Козовий (гітара)
Олег "Джон" Cук (клавішні)
Пісні:
    01. Харалало
    02. Не дивись на мене так
    03. Ромбамбар
    04. Боже, не йди
    05. Мзе
    06. Генацвале
    07. Ой, місяцю
    08. Руки
    09. Без тебе
    10. Нані
    Бонус:
    11. Миколай
    12. Мама

Тривалість: 00:40:19
Мова: 1-4,7,9,11,12 - українська; 5,6,8,10 - грузинська
Аудіо-кодек: APE (image + .cue)
Бітрейт: 980 кб/с
Джерело: torrents.hutir.info
Додаткова інформація:
Лог EAC
Exact Audio Copy V0.99 prebeta 4 from 23. January 2008

Звіт EAC про видобування, котре виконане 24. червня 2010, 0:31

Ґорґішелі / Невідома Назва

Дисковод: Optiarc DVD RW AD-7560A Adapter: 0 ID: 0

Режим читання : Точний
Використати точний потік : Так
Вимкнути аудіо кеш : Ні
Застосувати мітки C2 : Так

Корекція зміщення при читанні : 0
Екстрачитання областей Lead-in і Lead-out : Ні
Заповнення пропущених семплів тишею : Так
Видалення блоків з тишею на початку і кінці : Ні
При вирахуванні CRC використовувались нульові семпли : Так
Використаний інтерфейс : 'Рідний' Win32-інтерфейс для Win NT/2000

Застосований вихідний формат : Внутрішні WAV-операції
Формат семпла : 44.100 Гц; 16 біт; стерео

TOC видобутого CD

Трек | Старт | Довжина | Початковий сектор | Кінцевий сектор
------------------------------------------------------------------
1 | 0:00.00 | 2:58.63 | 0 | 13412
2 | 2:58.63 | 3:34.09 | 13413 | 29471
3 | 6:32.72 | 3:58.05 | 29472 | 47326
4 | 10:31.02 | 4:03.00 | 47327 | 65551
5 | 14:34.02 | 2:39.16 | 65552 | 77492
6 | 17:13.18 | 3:47.53 | 77493 | 94570
7 | 21:00.71 | 3:09.22 | 94571 | 108767
8 | 24:10.18 | 2:56.53 | 108768 | 122020
9 | 27:06.71 | 4:43.64 | 122021 | 143309
10 | 31:50.60 | 1:53.60 | 143310 | 151844
11 | 33:44.45 | 2:40.19 | 151845 | 163863
12 | 36:24.64 | 3:59.54 | 163864 | 181842

Статус діапазону і помилки

Обраний діапазон

Ім'я файлу D:\Music\Gorgisheli.-.Rombambar\Ґорґішелі - Ромбамбар.wav

Піковий рівень 100.0 %
Якість діапазону 99.9 %
CRC копії 0C11EEDD
Копіювання... OK

Помилки не траплялися

Кінець звіту
Про альбом
Отже, третій альбом. Хто слідкує за цим від початку (мова саме про "Ґорґішелі", а не про "Чорний вересень") – мабуть, помітить, що гурт не міняє маски, а дотримується у своєму русі певного напрямку. І тому дуже добре видно, що звучання стає все більш упевненим і, водночас, прозорим – іншими словами, якість росте на очах, і це приємно. Крім того, дуже приємно, що "Ґорґішелі" все більше уваги приділяють пісням грузинською мовою – цього разу вони складають вже майже половину альбому. Відповідно, тепер ще дужче хочеться дочекатись альбому, записаного винятково грузинською... Втім, коли чуєш щось на зразок "Боже, не йди" – навіть ладен почекати трохи довше) Зрештою, те, що робить зараз "Ґорґішелі", цілком можна окреслити виразом "просто рок" – але це не є формальним визначенням. Скоріше – етичний принцип, за яким стоїть чесність. Звичайна чесність – але її в сучасній музиці, на жаль, не так і багато. До речі, і ромбамбар (або ревінь) тепер якось не так часто й зустрінеш на українському столі – а раніше ж він (ревінь) був абсолютно звичною його (столу) окрасою... УМКА

Якщо Ви справді бажаєте підтримати українське - після прослуховування, якщо музика вам сподобалась, придбайте ліцензійний диск. Підтримаймо вітчизняних виконавців!


Срібний реліз (на рейтинг впливає 50% завантаженого)
 Трекер:    Зареєстрований   

Завантажити / скачати українську музику



відео для новачків



 Зареєстрований:   2010-06-26 14:38
 Розмір:   284 MB 
 Оцінка музики:   10/10 (Голосів: 23)
   
taras1988_2008 
Модератор розділу ТБ


З нами з: 01.05.09
Востаннє: 23.10.16
Повідомлень: 871

2010-06-26 19:53  
викладіть ще в mp3. Wink (2)
Skiff 
музика
музика


З нами з: 12.11.07
Востаннє: 09.12.16
Повідомлень: 3051

2010-06-26 21:33  
taras1988_2008

Зараз буде...

Додано через 1 годину 34 хвилини 13 секунд:

Виклав тут

Hollander 
Поважний учасник


З нами з: 10.04.09
Востаннє: 09.05.16
Повідомлень: 237

2010-06-27 14:24  
Що це за 4 файли? Як прослухати їх?
Skiff 
музика
музика


З нами з: 12.11.07
Востаннє: 09.12.16
Повідомлень: 3051

2010-06-27 14:37  
Hollander
Альбом одним файлом.
Цитата:
Ґорґішелі - Ромбамбар.ape

Я використовую для прослуховування плеєр JetAudio

Hollander 
Поважний учасник


З нами з: 10.04.09
Востаннє: 09.05.16
Повідомлень: 237

2010-06-27 14:51  
Дякую! Спробую!
ssTAss 
Модератор музики


З нами з: 05.07.08
Востаннє: 10.12.16
Повідомлень: 10950

2010-06-27 22:10  
Hollander написано:
Що це за 4 файли? Як прослухати їх?

краще фубаром
він безкоштовний... ТУТ
запускаєте файл, з розширенням .cue і слухаєте
можете і потреково ним "порізати"

Lev 
VIP


З нами з: 14.10.09
Востаннє: 09.12.16
Повідомлень: 1819

2010-06-27 22:33  
оперативно Happy
Hollander 
Поважний учасник


З нами з: 10.04.09
Востаннє: 09.05.16
Повідомлень: 237

2010-06-28 11:38  
ssTAss написано:

краще фубаром
він безкоштовний... ТУТ
запускаєте файл, з розширенням .cue і слухаєте
можете і потреково ним "порізати"

Якби ще знати що скачувати на тому сайті! Confused

ssTAss 
Модератор музики


З нами з: 05.07.08
Востаннє: 10.12.16
Повідомлень: 10950

2010-06-28 15:26  
Hollander написано:
Якби ще знати що скачувати на тому сайті!

заходите по посиланню і клікаєте на foobar2000 v1.0.3
Цитата:
Latest stable version
Download foobar2000 v1.0.3

Nomad 
VIP


З нами з: 17.03.08
Востаннє: 08.02.12
Повідомлень: 513

2010-06-29 18:35  
zeron написано:
Дисковод: Optiarc DVD RW AD-7560A Adapter: 0 ID: 0

zeron написано:
Корекція зміщення при читанні : 0


а має бути +6 для цього приводу

Lev 
VIP


З нами з: 14.10.09
Востаннє: 09.12.16
Повідомлень: 1819

2010-12-25 08:01  
Nomad написано:
а має бути +6 для цього приводу


так, реліз однозначно треба переробити

ssTAss 
Модератор музики


З нами з: 05.07.08
Востаннє: 10.12.16
Повідомлень: 10950

2010-12-25 20:43  
Lev написано:
однозначно

якраз ні
реліз повністю відповідає правилам

Ваш часовий пояс: GMT + 2 Години

Нова тема   Відповісти