Завантажити та скачати торренти українською


Очеретяний Кіт - Демидівський Альбом (2010) [FLAC] | Ethno / Jazz

Нові коментарі

Нова тема   Відповісти
Останній раз роздавалося biogenn (2016-12-08)
Автор Повідомлення
Rosenbom 
Частий відвідувач


З нами з: 28.10.07
Востаннє: 08.12.16
Повідомлень: 40

2010-06-25 10:42  
Очеретяний Кіт - Демидівський Альбом (2010) [FLAC] | Ethno / Jazz



Стиль: Ethno Jazz
Країна, місто: Україна, Вінниця
Видавець: UKRmusic
Виконавці:
Роман Кріль - вокал, гітара
Володимир Войчишин - бас, контрабас, перкусія, гітара
Олена Шевченко - скрипка
Микола Доляк - флейта
Юрій Войтюк - ударні
Яна Шпачинська - вокал, гітара
Павло Нечитайло - вокал, гітара
Роман "DJ ZX" Горін - звукозведення
Пісні:
    1. Рейки
    2. Медея
    3. Окіл Рову
    4. Табу
    5. Горілчаний дзен
    6. Кіномеханік
    7. Ранішні звуки
    8. Піфагор
    9. Дістатися раю
    10. Налягай на весла

    бонуси:
    11. Здається (Яна Шпачинська та Ocheret Orchestra)
    12. Ровер (Яна Шпачинська та Ocheret Orchestra)
    13. Хазяїн (П. Нечитайло)
    14. Космозоо
    15. Река
    16. Зомбі (Ocheret Orchestra та Vova V)
    17. Ранішні звуки (Ocheret Orchestra та Vova V)

    video:
    18. Мандрівка в Косаківку

    Тривалість: 00:03:13
    Якість:
    кодек: DivX 5
    розмір кадру: 720 x 576
    бітрейт: 1988 кб/с
    частота кадрів: 29.970 кадр/с

    Аудіо:
    мова: українська
    кодек: MP3
    бітрейт: 256 кб/с CBR
    Скріншоти:
    19. Окіл Рови

    Тривалість: 00:02:37
    Якість:
    кодек: DivX 5
    розмір кадру: 720 x 576
    бітрейт: 2011 кб/с
    частота кадрів: 29.970 кадр/с

    Аудіо:
    мова: українська
    кодек: MP3
    бітрейт: 256 кб/с CBR
    Скріншоти:
    20. Ранішні звуки

    Тривалість: 00:03:32
    Якість:
    кодек: DivX 5
    розмір кадру: 720 x 576
    бітрейт: 1945 кб/с
    частота кадрів: 29.970 кадр/с

    Аудіо:
    мова: українська
    кодек: MP3
    бітрейт: 256 кб/с CBR
    Скріншоти:


log EAC

Exact Audio Copy V0.99 prebeta 5 from 4. May 2009

EAC extraction logfile from 25. June 2010, 10:37

Очеретяний Кіт / Демидівський альбом

Used drive : Optiarc DVD RW AD-7191S Adapter: 5 ID: 0

Read mode : Secure
Utilize accurate stream : Yes
Defeat audio cache : Yes
Make use of C2 pointers : No

Read offset correction : 6
Overread into Lead-In and Lead-Out : No
Fill up missing offset samples with silence : Yes
Delete leading and trailing silent blocks : No
Null samples used in CRC calculations : Yes
Used interface : Native Win32 interface for Win NT & 2000

Used output format : User Defined Encoder
Selected bitrate : 768 kBit/s
Quality : High
Add ID3 tag : No
Command line compressor : d:\Program Files\Exact Audio Copy\FLAC\FLAC.EXE
Additional command line options : -8 -V %s

TOC of the extracted CD

Track | Start | Length | Start sector | End sector
---------------------------------------------------------
1 | 0:00.00 | 2:55.40 | 0 | 13164
2 | 2:55.40 | 2:56.26 | 13165 | 26390
3 | 5:51.66 | 2:30.12 | 26391 | 37652
4 | 8:22.03 | 2:03.03 | 37653 | 46880
5 | 10:25.06 | 2:40.26 | 46881 | 58906
6 | 13:05.32 | 2:41.58 | 58907 | 71039
7 | 15:47.15 | 1:53.35 | 71040 | 79549
8 | 17:40.50 | 2:55.32 | 79550 | 92706
9 | 20:36.07 | 2:51.29 | 92707 | 105560
10 | 23:27.36 | 4:13.38 | 105561 | 124573
11 | 27:40.74 | 1:49.05 | 124574 | 132753
12 | 29:30.04 | 1:58.35 | 132754 | 141638
13 | 31:28.39 | 3:10.42 | 141639 | 155930
14 | 34:39.06 | 2:13.10 | 155931 | 165915
15 | 36:52.16 | 2:56.55 | 165916 | 179170
16 | 39:48.71 | 2:42.21 | 179171 | 191341
17 | 42:31.17 | 2:34.17 | 191342 | 202908
18 | 47:37.34 | 17:13.37 | 214309 | 291820

Range status and errors

Selected range

Filename J:\Lossless\Temp\Очеретяний Кіт - Демидівський альбом.wav

Peak level 98.9 %
Range quality 100.0 %
Test CRC 853D58DF
Copy CRC 853D58DF
Copy OK

No errors occurred

End of status report


Тривалість: 00:45:10
Мова: українська (1-15, 17), російська (14-16)
Аудіо-кодек: FLAC
Бітрейт: 836 кб/с
Джерело: власний CD
Додаткова інформація:
"Демидівський альбом" є наступником "Мандрівки в Косаківку" не лише хронологічно: в плані стилю, звучання – з перших секунд виникає своєрідний ефект упізнавання. І, якби йшлося про когось іншого, це могло би бути недоліком, але у випадку з Очеретяним Котом цей ефект – однозначно приємний. Втім – що, зрештою, також приємно – перше враження виявляється дещо оманливим. Варто лише прислухатися до текстів – а в піснях цього гурту завжди варто прислухатися до текстів – і розумієш, що ідеться вже зовсім про інше. Якщо "Мандрівку", цілком відповідно до назви, можна визначити як запис подорожей у просторі і часі, то "Демидівський" альбом – схожий на спробу зупинитись і зануритись, осягнути час і простір, в яких перебуваєш тут і тепер. Зважаючи ж на особливу манеру гурту, виходить, що його "тут і тепер" знаходиться десь поза простором і часом.. Хоча це не заважає пісням бути абсолютно теплими на дотик, рідними – тут звучить маса деталей, дрібниць, в яких чи не кожен з нас, мабуть, впізнає щось зі свого власного життя-буття. Це якийсь інший погляд на життя на землі і на Землі, на гармонію – погляд зсередини, живий досвід, а не зовнішнє дослідження. І попри всю, здавалося б, простоту описуваних речей – а може, саме завдяки такій простоті – альбом набуває навіть езотеричного присмаку. Очеретяний Кіт, власне, можна назвати виконавцями уявного фольклору – і, на наш погляд, в Україні мало хто міг би з ними зрівнятися у цьому чудернацькому, але такому світлому мистецтві...


Якщо Ви справді бажаєте підтримати українське - після прослуховування, якщо музика вам сподобалась, придбайте ліцензійний диск. Підтримаймо вітчизняних виконавців!


Срібний реліз (на рейтинг впливає 50% завантаженого)
 Трекер:    Зареєстрований   

Завантажити / скачати українську музику



відео для новачків



 Зареєстрований:   2010-06-25 10:42
 Розмір:   538 MB 
 Оцінка музики:   9.9/10 (Голосів: 16)
   
ewgenus 
Поважний учасник


З нами з: 03.03.09
Востаннє: 13.10.16
Повідомлень: 194

2010-06-29 15:34  
Це саундтрекі для фільмів? Поки що не знятих ...
Skiff 
музика
музика


З нами з: 12.11.07
Востаннє: 08.12.16
Повідомлень: 3051

2010-06-29 16:50  
ewgenus
Ні, це новий альбом групи Очеретяний кіт
Wink (2)

Sepoolka 
Свій


З нами з: 27.05.09
Востаннє: 06.12.16
Повідомлень: 88

2010-07-02 14:01  
бачу зроблено це в Еxact Audio Copy V0.99 prebeta 5 from 4, відкриваю в ньому і мені видає помилку "Помилка в Cue Sheet! Тип файлу що не підтримується в рядку 7". Як з цим боротись?
Lev 
VIP


З нами з: 14.10.09
Востаннє: 05.12.16
Повідомлень: 1819

2010-07-03 03:38  
чоооотко
Ваш часовий пояс: GMT + 2 Години

Нова тема   Відповісти