Завантажити та скачати торренти українською


Плач Єремії - Як я спала на сені (EP) (1999) [FLAC] | Art-rock / Fusion

Нові коментарі

Нова тема   Відповісти
Останній раз роздавалося Sloneniatko (2016-12-03)
Автор Повідомлення
Lev 
VIP


З нами з: 14.10.09
Востаннє: 28.11.16
Повідомлень: 1819

2010-06-25 02:53  
Плач Єремії - Як я спала на сені (EP) (1999) [FLAC] | Art-rock / Fusion



Стиль: Art Rock Fusion
Країна, місто: Україна, Львів
Видавець: Караван CD
Виконавці:
Тарас Чубай - вокал, гітари, музика
Всеволод Дячишин - бас-гітара
Юрко Дуда - труба, клавішні
Сашко Каменецький - барабани
Пісні:
    01 - Як я спала на сені (03:47)

    02 - Колискова (03:40)

    03 - Клітка з левом (01:17)

    04 - Ті, що забули (03:44)

    05 - Світло і сповідь (III ч.) (05:38)

    06 - Так спроквола надходить (04:07)

Тривалість: 00:22:13
Мова: українська
Аудіо-кодек: FLAC
Бітрейт: 657-1021 кб/с, 16 bit / 44100 Hz
Джерело: інший торент-трекер
Додаткова інформація:
звіт EAC
Exact Audio Copy V0.99 prebeta 4 from 23. January 2008

EAC extraction logfile from 14. February 2009, 22:27

Plach Yeremiji / Yak Ya Spala na Seni

Used drive : TSSTcorpCDDVDW SH-S202N Adapter: 1 ID: 0

Read mode : Secure
Utilize accurate stream : Yes
Defeat audio cache : Yes
Make use of C2 pointers : No

Read offset correction : 6
Overread into Lead-In and Lead-Out : No
Fill up missing offset samples with silence : Yes
Delete leading and trailing silent blocks : No
Null samples used in CRC calculations : Yes
Used interface : Installed external ASPI interface

Used output format : Internal WAV Routines
Sample format : 44.100 Hz; 16 Bit; Stereo

TOC of the extracted CD

Track | Start | Length | Start sector | End sector
---------------------------------------------------------
1 | 0:00.00 | 3:46.74 | 0 | 17023
2 | 3:46.74 | 3:39.55 | 17024 | 33503
3 | 7:26.54 | 1:17.10 | 33504 | 39288
4 | 8:43.64 | 3:44.05 | 39289 | 56093
5 | 12:27.69 | 5:38.12 | 56094 | 81455
6 | 18:06.06 | 4:07.14 | 81456 | 99994

Range status and errors

Selected range

Filename D:\Grab\PlachSpalaNaSeni\Plach Yeremiji - Yak Ya Spala na Seni.wav

Peak level 96.4 %
Range quality 100.0 %
Copy CRC F2D7B0B3
Copy OK

No errors occurred

End of status report
Якщо Ви справді бажаєте підтримати українське - після прослуховування, якщо музика вам сподобалась, придбайте ліцензійний диск. Підтримаймо вітчизняних виконавців!


Срібний реліз (на рейтинг впливає 50% завантаженого)
 Трекер:    Зареєстрований   

Завантажити / скачати українську музику



відео для новачків



 Зареєстрований:   2010-06-25 02:53
 Розмір:   148 MB 
 Оцінка музики:   10/10 (Голосів: 8)
   
Skiff 
музика
музика


З нами з: 12.11.07
Востаннє: 03.12.16
Повідомлень: 3051

2010-06-25 09:34  
Бачив відмінні від зазначеного роки виходу EP.
На Умці 1999 рік, на livejournal - 2001...

Lev 
VIP


З нами з: 14.10.09
Востаннє: 28.11.16
Повідомлень: 1819

2010-06-25 09:49  
Skiff написано:

Бачив відмінні від зазначеного роки виходу EP.
На Умці 1999 рік, на livejournal - 2001...


я гуглив перед тим - більшість лінків у гуглі вказують 2000 рік
думаю, в тому шось є Happy
міг би й особисто спитати автора, але відповідь могла б бути нескоро.

weber 
Почесний гуртомівець


З нами з: 03.08.08
Востаннє: 02.12.16
Повідомлень: 7003

2010-06-25 17:07  
І тут та ж проблема з назвами
ssTAss 
Модератор музики


З нами з: 05.07.08
Востаннє: 03.12.16
Повідомлень: 10932

2010-06-25 19:48  
і все-таки 1999 рік
видавець - Караван CD
і ось трек-ліст з умки
Цитата:
1. "Як Я Спала На Сені..."
2. Колискова
3. Клітка З Левом
4. "Ті, Що Забули..."
5. Світло І Сповідь (ІІІ ч.)
6. "Так Спроквола Надходить..."

weber, що Ви маєте на увазі? лапки, трикрапки і III ч. ?

weber 
Почесний гуртомівець


З нами з: 03.08.08
Востаннє: 02.12.16
Повідомлень: 7003

2010-06-25 19:50  
ssTAss, назва теки була просто FLAC, торрент вжен поміняли, все нормально
Ваш часовий пояс: GMT + 2 Години

Нова тема   Відповісти