Завантажити та скачати торренти українською


JazzEx - Bee JazzEx (2007) [APE] | Jazz

Нові коментарі

Нова тема   Відповісти
Останній раз роздавалося ssTAss (2016-12-10)
Автор Повідомлення
ssTAss 
Модератор музики


З нами з: 05.07.08
Востаннє: 10.12.16
Повідомлень: 10950

2010-06-22 00:33  
JazzEx - Bee JazzEx (2007) [APE] | Jazz



Стиль: Jazz, Soul, Vocal
Країна, місто: Україна, Київ
Сайти:
Видавець: Moon records
Виконавці:
Вокальний секстет.

Марина Керусенко (альт)
Сергій Юрченко (тенор)
Тетяна Шилова (сопрано)
Павло Москаленко (баритон)
Олена Орлова (сопрано)
Дмитро Єфіменко (бас)

Художній керівник – Заслужений артист України Олександр Лисоконь.
Пісні:
    1. Take Five (музика: Paul Desmond)
    2. Spain (музика: Al Jarreau/Chick Corea)
    3. La belle dame sans regrets (музика: Dominic Miller)
    4. Dream A Little Dream Of Me (музика: Gus Kahn/Fabian Andre & Wilbur Schwandt)
    5. "Полёт шмеля" (музика: М. Римський-Корсаков)
    6. Щедрик (музика: українська народна)
    7. Samba de uma Nota So + Garota de Ipanema (музика: N. Mendonca/Antonio C. Jobim)
    8. Besame mucho (музика: Consuelo Velasquez)
    9. Три хвилини (JazzEx, Друга Ріка)
    10. Відчиняй (JazzEx, Друга Ріка)
    Bonus video:
    11. Відчиняй (JazzEx, Друга Ріка)
    тех дані

    Відео
    Якість:
    Тривалість: 00:03:42
    кодек: DivX 5
    розмір кадру: 672x416
    бітрейт: 2 400 кбіт/сек

    Аудіо
    мова: українська
    кодек: MP3
    бітрейт: 192 кбіт/сек
    log

    Exact Audio Copy V0.99 prebeta 4 from 23. January 2008

    Звіт EAC про видобування, котре виконане 15. листопада 2008, 0:27

    Jazzex / Bee Jazzex

    Дисковод: _NEC DVD_RW ND-4570A Adapter: 5 ID: 0

    Режим читання : Точний
    Використати точний потік : Так
    Вимкнути аудіо кеш : Так
    Застосувати мітки C2 : Ні

    Корекція зміщення при читанні : 48
    Екстрачитання областей Lead-in і Lead-out : Так
    Заповнення пропущених семплів тишею : Так
    Видалення блоків з тишею на початку і кінці : Ні
    При вирахуванні CRC використовувались нульові семпли : Так
    Використаний інтерфейс : Встановлений зовнішній ASPI-інтерфейс

    Застосований вихідний формат : Внутрішні WAV-операції
    Формат семпла : 44.100 Гц; 16 біт; стерео

    TOC видобутого CD

    Трек | Старт | Довжина | Початковий сектор | Кінцевий сектор
    ------------------------------------------------------------------
    1 | 0:00.00 | 3:33.12 | 0 | 15986
    2 | 3:33.12 | 5:14.42 | 15987 | 39578
    3 | 8:47.54 | 4:57.31 | 39579 | 61884
    4 | 13:45.10 | 3:50.00 | 61885 | 79134
    5 | 17:35.10 | 1:45.46 | 79135 | 87055
    6 | 19:20.56 | 3:39.31 | 87056 | 103511
    7 | 23:00.12 | 5:02.20 | 103512 | 126181
    8 | 28:02.32 | 2:50.22 | 126182 | 138953
    9 | 30:52.54 | 3:46.07 | 138954 | 155910
    10 | 34:38.61 | 3:22.33 | 155911 | 171093
    11 | 40:33.19 | 7:52.35 | 182494 | 217928

    Статус діапазону і помилки

    Обраний діапазон

    Ім'я файлу K:\Bee Jazzex\Jazzex - Bee Jazzex.wav

    Піковий рівень 100.0 %
    Якість діапазону 99.9 %
    CRC тесту 3A3DA279
    CRC копії 3A3DA279
    Копіювання... OK

    Помилки не траплялися

    Звіт Точного Видобування

    Трек 1 не присутнє в базі даних
    Трек 2 не присутнє в базі даних
    Трек 3 не присутнє в базі даних
    Трек 4 не присутнє в базі даних
    Трек 5 не присутнє в базі даних
    Трек 6 не присутнє в базі даних
    Трек 7 не присутнє в базі даних
    Трек 8 не присутнє в базі даних
    Трек 9 не присутнє в базі даних
    Трек 10 не присутнє в базі даних

    Жодного трека немає в базі AccurateRip

    Кінець звіту

Тривалість: 00:38:01
Мова: без слів (1, 5), українська (6, 9-11), англійська (2, 4), французька (3), іспанська (8), португальська (7)
Аудіо-кодек: APE
Бітрейт: 900 кб/с
Джерело: rutracker
Додаткова інформація:
Історія вокального секстету JazzEx починається ще у 1991-му році, саме тоді його заснували Марина Керусенко та Володимир Міхновецький (який згодом став, до речі, засновником ManSound). Тоді повна назва колективу виглядала як Jazz-Expromt, і саме під цією назвою він отримав першу славу та кілька перемог на міжнародних фестивалях. Втім, кілька останніх років про JazzEx майже нічого не було чутно – лише те, що іде робота одночасно над двома програмами і, відповідно, альбомами. Один мав складатися зі стандартів, другий – з обробок українських народних пісень. Власне, першу з обіцяних платівок Ви і бачите зараз перед собою. Це – альбом стандартів, але у не зовсім стандартному розумінні. Тобто, він складається з авторських обробок джазових евергрінів – але сюди потрапили і обробки таких шлягерів, як "Besame mucho", "La belle dame sans regrets". Більше того, тут знайшлося місце і для класичного "Польоту джмеля" Римського-Корсакова, і для українського "Щедрика" – а ось його вже можна вважати, мабуть, провісником другого з обіцяних альбомів. Але і це ще не все. Кілька місяців тому склалося так, що JazzEx зробив аранжування на пісню "Відчиняй" одного з найбільш яскравих поп-рокових гуртів України – Другої Ріки. Аранжування вийшло настільки вдалим, що майже одразу на нього було знято спільний кліп, а також з’явилася обробка ще однієї надзвичайно популярної пісні того ж гурту – "Три хвилини". Ось так і сталося, що альбом стандартів набув дещо нестандартного вигляду – але це, погодьтеся, тільки на користь справі. Зрештою, якість виконання нарікань не викликає – тож, чим різноманітнішою буде програма, тим краще. (умка)

"…Сама Радість ллється з колективу Душі цього найнезбагненнішого ансамблю, якому вдалося и вдається легко поєднувати вічну гармонію Інь і Янь – чоловічого та жіночого начал." (Олександр Євтушенко).


Якщо Ви справді бажаєте підтримати українське - після прослуховування, якщо музика вам сподобалась, придбайте ліцензійний диск. Підтримаймо вітчизняних виконавців!


Срібний реліз (на рейтинг впливає 50% завантаженого)
 Трекер:    Зареєстрований   

Завантажити / скачати українську музику



відео для новачків



 Зареєстрований:   2010-06-22 00:33
 Розмір:   320 MB 
 Оцінка музики:   7.9/10 (Голосів: 13)
   
layt 
Новенький


З нами з: 19.09.10
Востаннє: 15.01.14
Повідомлень: 17

2010-10-13 19:32  
А альт труба або Саксофон???
ssTAss 
Модератор музики


З нами з: 05.07.08
Востаннє: 10.12.16
Повідомлень: 10950

2011-01-09 01:02  

Ваш часовий пояс: GMT + 2 Години

Нова тема   Відповісти