Завантажити та скачати торренти українською


Ніч у музеї: Трилогія / Night at the Museum: Trilogy (2006-2014) 720р Ukr/Eng | Sub Ukr/Eng

Нові коментарі

Нова тема   Відповісти
Автор Повідомлення
Beffis 
Модератор DVD


З нами з: 17.09.09
Востаннє: 03.12.16
Повідомлень: 339

2010-06-10 14:29  
Ніч у музеї: Трилогія / Night at the Museum: Trilogy (2006-2014) 720р Ukr/Eng | Sub Ukr/Eng

Ніч у музеї: Трилогія / Night at the Museum: Trilogy (2006-2014) 720р Ukr/Eng | Sub Ukr/Eng
Ніч у музеї / Night at the Museum (2006) 720р 2xUkr/Eng | Sub Ukr/Eng
Ніч у музеї / Night at the Museum (2006) 720р 2xUkr/Eng



Жанр: Комедія, фантастика, сімейний, пригодницький
Країна: США




Режисер: Шон Лівай
Актори: Бен Стіллер, Робін Вільямс, Овен Вілсон, Карла Гуджіно та інші

Сюжет:
За загальноприйнятими критеріями Леррі Дейлі є типовий невдаха. Аби зберегти залишки батьківського авторитету в очах маленького сина, він улаштовується на мало престижну роботу нічного сторожа до музею природознавства. Та, виявляється, у цієї посади є додаткове навантаження, не передбачене контрактом: кожну ніч всі експонати музею є опудала звірів, скелети доісторичних тварин, фігурки людей і навіть восковий Теодор Рузвельт оживають і починають поводитися як мінімум виклично, а часом відверто агресивно. Виною всьому є автентична скрижаль з Давнього Єгипту, що має очевидні магічні властивості. Відтепер для Леррі питання честі дотриматися найважливішого принципу роботи наглядача музею: нікого не впускати і, головне, нікого не випускати!


Тривалість: 01:48:36
Якість:
Відео:
кодек:
розмір кадру: 1280 х 688
бітрейт: 5 120 кб/с

Аудіо # 1:
мова: українська
переклад: професійний дубльований
кодек: 5.1
бітрейт: 448 кб/с

Аудіо # 2:
мова: українська
переклад: професійний дубльований
кодек: 2.0
бітрейт: 192 кб/с

Аудіо # 3:
мова: англійська
переклад: оригінал
кодек:
бітрейт: 768 кб/с

Джерело озвучення:


Субтитри:
мова: українська
тип: програмні (м'які)
формат: *.srt

Субтитри:
мова: англійська
тип: програмні (м'які)
формат: *.srt
MediaInfo:
General
Unique ID : 188064741816147080677882978892228975001 (0x8D7BF3A782038A62BB3717713FEDD999)
Complete name : D:\Гуртом\Night at the Museum Trilogy (2006-2014) 720р [Hurtom] by Beffis\Night at the museum (2006) [Uk,Eng] 720p [Hurtom] by Beffis (1).mkv
Format : Matroska
Format version : Version 4 / Version 2
File size : 4.94 GiB
Duration : 1h 48mn
Overall bit rate : 6 517 Kbps
Encoded date : UTC 2015-03-20 11:00:10
Writing application : mkvmerge v7.7.0 ('Six Voices') 64bit built on Feb 28 2015 23:39:33
Writing library : libebml v1.3.1 + libmatroska v1.4.2
_STATISTICS_WRITING_APP : mkvmerge v7.7.0 ('Six Voices') 64bit built on Feb 28 2015 23:39:33
_STATISTICS_WRITING_DATE_UTC : 2015-03-20 11:00:10
_STATISTICS_TAGS : BPS DURATION NUMBER_OF_FRAMES NUMBER_OF_BYTES
DURATION : 01:41:32.245000000
NUMBER_OF_FRAMES : 1215
NUMBER_OF_BYTES : 44040

Video
ID : 1
Format : AVC
Format/Info : Advanced Video Codec
Format profile : [email protected]
Format settings, CABAC : Yes
Format settings, ReFrames : 8 frames
Codec ID : V_MPEG4/ISO/AVC
Duration : 1h 48mn
Bit rate : 5 120 Kbps
Width : 1 280 pixels
Height : 688 pixels
Display aspect ratio : 1.85:1
Frame rate mode : Constant
Frame rate : 23.976 fps
Color space : YUV
Chroma subsampling : 4:2:0
Bit depth : 8 bits
Scan type : Progressive
Bits/(Pixel*Frame) : 0.242
Stream size : 3.79 GiB (77%)
Writing library : core 54 svn-650
Encoding settings : cabac=1 / ref=5 / deblock=1:-3:-2 / analyse=0x3:0x133 / me=umh / subme=7 / brdo=0 / mixed_ref=1 / me_range=16 / chroma_me=1 / trellis=1 / 8x8dct=1 / cqm=2 / deadzone=21,11 / chroma_qp_offset=0 / threads=3 / nr=0 / decimate=1 / mbaff=0 / bframes=3 / b_pyramid=1 / b_adapt=1 / b_bias=0 / direct=1 / wpredb=1 / bime=1 / keyint=240 / keyint_min=24 / scenecut=40(pre) / rc=2pass / bitrate=5120 / ratetol=1.0 / rceq='blurCplx^(1-qComp)' / qcomp=0.60 / qpmin=10 / qpmax=51 / qpstep=4 / cplxblur=20.0 / qblur=0.5 / ip_ratio=1.40 / pb_ratio=1.30
Language : English
Default : Yes
Forced : No
_STATISTICS_WRITING_APP : mkvmerge v7.7.0 ('Six Voices') 64bit built on Feb 28 2015 23:39:33
_STATISTICS_WRITING_DATE_UTC : 2015-03-20 11:00:10
_STATISTICS_TAGS : BPS DURATION NUMBER_OF_FRAMES NUMBER_OF_BYTES
DURATION : 01:48:36.510000000
NUMBER_OF_FRAMES : 156240
NUMBER_OF_BYTES : 4170310152

Audio #1
ID : 2
Format : AC-3
Format/Info : Audio Coding 3
Mode extension : CM (complete main)
Format settings, Endianness : Big
Codec ID : A_AC3
Duration : 1h 48mn
Bit rate mode : Constant
Bit rate : 448 Kbps
Channel(s) : 6 channels
Channel positions : Front: L C R, Side: L R, LFE
Sampling rate : 48.0 KHz
Bit depth : 16 bits
Compression mode : Lossy
Stream size : 348 MiB (7%)
Default : Yes
Forced : No

Audio #2
ID : 3
Format : AC-3
Format/Info : Audio Coding 3
Mode extension : CM (complete main)
Format settings, Endianness : Big
Codec ID : A_AC3
Duration : 1h 48mn
Bit rate mode : Constant
Bit rate : 192 Kbps
Channel(s) : 2 channels
Channel positions : Front: L R
Sampling rate : 48.0 KHz
Bit depth : 16 bits
Compression mode : Lossy
Stream size : 149 MiB (3%)
Default : No
Forced : No

Audio #3
ID : 4
Format :
Format/Info : Digital Theater Systems
Mode : 16
Format settings, Endianness : Big
Codec ID : A_DTS
Duration : 1h 48mn
Bit rate mode : Constant
Bit rate : 755 Kbps
Channel(s) : 6 channels
Channel positions : Front: L C R, Side: L R, LFE
Sampling rate : 48.0 KHz
Bit depth : 24 bits
Compression mode : Lossy
Stream size : 586 MiB (12%)
Language : English
Default : No
Forced : No

Text #1
ID : 5
Format : UTF-8
Codec ID : S_TEXT/UTF8
Codec ID/Info : UTF-8 Plain Text
Default : Yes
Forced : No

Text #2
ID : 6
Format : UTF-8
Codec ID : S_TEXT/UTF8
Codec ID/Info : UTF-8 Plain Text
Default : No
Forced : No
скріншоти
Ніч у музеї 2 / Night at the Museum: Battle of the Smithsonian (2009) 720p Ukr/Eng | Sub Ukr/Eng
Ніч у музеї 2 / Night at the Museum: Battle of the Smithsonian (2009) 720p Ukr/Eng | Sub Ukr/Eng



Жанр: Комедія, Бойовик, Сімейний, Фентезі, Пригодницький
Країна: США, Канада




Кіностудія / кінокомпанія: Twentieth Century-Fox Film Corporation
Режисер: Шон Леві
Актори: Бен Стіллер, Емі Адамс, Овен Вілсон, Хенк Азарія, Робін Вільямс, Крістофер Гест, Ален Шаба, Стів Куген, Рікі Джервейс, Білл Хадер

Сюжет:
Колишній нічний сторож музею Ларрі Дейлі (Стіллер) дізнається, що його улюблених експонатів-друзів відправили в архіви Смітсонівського інституту, де новачки розбудили відомих історичних лиходіїв, які вирішили захопити музей, а потім і увесь світ...
У другій серії сторож Ларрі повинен був пережити щось ще більш неймовірне і набагато масштабніше, ніж ніч серед експонатів Ню-Йоркського музею природної історії, які раптом ожили. Де можна знайти ще більший музей, який би об’єднував в собі ще більш вражаючий набір експонатів, від доісторичних істот до творів середньовічного мистецтва та ракет космічного століття, і де були б приховані неперевершені можливості для розвитку смішного й захоплюючого сюжету? Відповідь була лише одна – величний Смітсонівський інститут.


Тривалість: 01:44:43
Якість:
Відео:
кодек:
розмір кадру: 1280 х 544
бітрейт: 7 043 кб/с

Аудіо # 1:
мова: українська
переклад: професійний дубльований
кодек: 5.1
бітрейт: 448 кб/с

Аудіо # 2:
мова: англійська
переклад: оригінал
кодек:
бітрейт: 768 кб/с

Джерело озвучення:


Субтитри:
мова: українська
тип: програмні (м'які)
формат: *.srt

Субтитри:
мова: англійська
тип: програмні (м'які)
формат: *.srt
MediaInfo:
General
Unique ID : 220750024947628414649755394353725019348 (0xA612E8881FBB69BA9356B5DA266194D4)
Complete name : D:\Гуртом\Night at the Museum Dilogy (2006-2009) [Uk,Eng] 720p [Hurtom] by Beffis\Night at the Museum-Battle of the Smithsonian (2009) [Uk,Eng] 720p [Hurtom] by Beffis (1).mkv
Format : Matroska
Format version : Version 4 / Version 2
File size : 6.04 GiB
Duration : 1h 44mn
Overall bit rate : 8 261 Kbps
Movie name : Night at the Museum Battle of the Smithsonian (2009) - Release for HDCLUB
Encoded date : UTC 2015-03-19 10:14:15
Writing application : mkvmerge v7.7.0 ('Six Voices') 64bit built on Feb 28 2015 23:39:33
Writing library : libebml v1.3.1 + libmatroska v1.4.2
DURATION : 01:44:43.232000000
NUMBER_OF_FRAMES : 196351
NUMBER_OF_BYTES : 351860992
_STATISTICS_WRITING_APP : mkvmerge v7.7.0 ('Six Voices') 64bit built on Feb 28 2015 23:39:33
_STATISTICS_WRITING_DATE_UTC : 2015-03-19 10:14:15
_STATISTICS_TAGS : BPS DURATION NUMBER_OF_FRAMES NUMBER_OF_BYTES

Video
ID : 1
Format : AVC
Format/Info : Advanced Video Codec
Format profile : [email protected]
Format settings, CABAC : Yes
Format settings, ReFrames : 9 frames
Codec ID : V_MPEG4/ISO/AVC
Duration : 1h 44mn
Bit rate : 7 043 Kbps
Width : 1 280 pixels
Height : 544 pixels
Display aspect ratio : 2.35:1
Frame rate mode : Constant
Frame rate : 23.976 fps
Color space : YUV
Chroma subsampling : 4:2:0
Bit depth : 8 bits
Scan type : Progressive
Bits/(Pixel*Frame) : 0.422
Stream size : 5.03 GiB (83%)
Title : Release for HDCLUB
Writing library : core 72 r1232 c8edc12
Encoding settings : cabac=1 / ref=9 / deblock=1:-3:-3 / analyse=0x3:0x113 / me=umh / subme=9 / psy=1 / psy_rd=1.0:0.0 / mixed_ref=1 / me_range=32 / chroma_me=1 / trellis=2 / 8x8dct=1 / cqm=0 / deadzone=21,11 / chroma_qp_offset=-2 / threads=12 / nr=0 / decimate=0 / mbaff=0 / bframes=3 / b_pyramid=0 / b_adapt=2 / b_bias=0 / direct=3 / wpredb=1 / keyint=250 / keyint_min=25 / scenecut=40 / rc=2pass / mbtree=0 / bitrate=7043 / ratetol=1.0 / qcomp=0.50 / qpmin=10 / qpmax=51 / qpstep=4 / cplxblur=20.0 / qblur=0.5 / ip_ratio=1.40 / pb_ratio=1.30 / aq=1:1.00
Language : English
Default : Yes
Forced : No
DURATION : 01:44:43.246000000
NUMBER_OF_FRAMES : 150647
NUMBER_OF_BYTES : 5531190317
_STATISTICS_WRITING_APP : mkvmerge v7.7.0 ('Six Voices') 64bit built on Feb 28 2015 23:39:33
_STATISTICS_WRITING_DATE_UTC : 2015-03-19 10:14:15
_STATISTICS_TAGS : BPS DURATION NUMBER_OF_FRAMES NUMBER_OF_BYTES

Audio #1
ID : 2
Format : AC-3
Format/Info : Audio Coding 3
Mode extension : CM (complete main)
Format settings, Endianness : Big
Codec ID : A_AC3
Duration : 1h 44mn
Bit rate mode : Constant
Bit rate : 448 Kbps
Channel(s) : 6 channels
Channel positions : Front: L C R, Side: L R, LFE
Sampling rate : 48.0 KHz
Bit depth : 16 bits
Compression mode : Lossy
Stream size : 336 MiB (5%)
Default : Yes
Forced : No

Audio #2
ID : 3
Format :
Format/Info : Digital Theater Systems
Mode : 16
Format settings, Endianness : Big
Codec ID : A_DTS
Duration : 1h 44mn
Bit rate mode : Constant
Bit rate : 768 Kbps
Channel(s) : 6 channels
Channel positions : Front: L C R, Side: L R, LFE
Sampling rate : 48.0 KHz
Bit depth : 24 bits
Compression mode : Lossy
Stream size : 575 MiB (9%)
Title : 5.1 @ 768 kbps
Language : English
Default : No
Forced : No

Text #1
ID : 4
Format : UTF-8
Codec ID : S_TEXT/UTF8
Codec ID/Info : UTF-8 Plain Text
Language : Ukrainian
Default : Yes
Forced : No

Text #2
ID : 5
Format : UTF-8
Codec ID : S_TEXT/UTF8
Codec ID/Info : UTF-8 Plain Text
Language : English
Default : No
Forced : No
скріншоти
Нiч у музеї. Секрет гробницi / Night at the Museum. Secret of the Tomb (2014) 720p Ukr/Eng | Sub Ukr/Eng
Нiч у музеї. Секрет гробницi / Night at the Museum. Secret of the Tomb (2014) 720p Ukr/Eng | Sub Ukr/Eng

Ніч у музеї: Трилогія / Night at the Museum: Trilogy (2006-2014) 720р Ukr/Eng | Sub Ukr/Eng


Жанр: пригодницький, комедія, сімейний, фентезі
Країна: США, Великобританія



Кінокомпанія: Twentieth Century Fox Film Corporation, 21 Laps Entertainment, 1492 Pictures
Режисер: Шон Леві / Shawn Levy
Актори: Бен Стіллер / Ben Stiller, Робін Вільямс / Robin Williams, Ребел Вілсон / Rebel Wilson, Ден Стівенс / Dan Stevens, Оввен Вілсон / Owen Wilson, Бен Кінґслі / Ben Kingsley, Дік Ван Дайк / Dick Van Dyke та інші

Сюжет:
Приготуйтеся до найшаленішої за всю історію, сповненої неймовірних пригод «Ночі у музеї», де Лері (Бен Стіллер) збере наших улюблених і нових героїв з усієї планети та вирушить в епічну подорож, аби врятувати магію до того, як вона зникне назавжди.


Тривалість: 01:37:49
Якість:
Відео:
кодек:
розмір кадру: 1280x544
бітрейт: 7 043 кб/с

Аудіо # 1:
мова: українська
переклад: професійний дубльований
кодек: 5.1
бітрейт: 448 кб/с

Аудіо # 2:
мова: англійська
переклад: оригінал
кодек: 5.1
бітрейт: 768 кб/с

Джерело озвучення:


Субтитри:
мова: українська
тип: програмні (м'які)
формат: *.srt

Субтитри:
мова: англійська
тип: програмні (м'які)
формат: *.srt
MediaInfo
General
Unique ID : 220750024947628414649755394353725019348 (0xA612E8881FBB69BA9356B5DA266194D4)
Complete name : D:\Гуртом\Night at the Museum Trilogy (2006-2014) 720р [Hurtom] by Beffis\Night at the Museum-Battle of the Smithsonian (2009) [Uk,Eng] 720p [Hurtom] by Beffis.mkv
Format : Matroska
Format version : Version 4 / Version 2
File size : 6.04 GiB
Duration : 1h 44mn
Overall bit rate : 8 261 Kbps
Movie name : Night at the Museum Battle of the Smithsonian (2009) - Release for HDCLUB
Encoded date : UTC 2015-03-19 10:14:15
Writing application : mkvmerge v7.7.0 ('Six Voices') 64bit built on Feb 28 2015 23:39:33
Writing library : libebml v1.3.1 + libmatroska v1.4.2
DURATION : 01:44:43.232000000
NUMBER_OF_FRAMES : 196351
NUMBER_OF_BYTES : 351860992
_STATISTICS_WRITING_APP : mkvmerge v7.7.0 ('Six Voices') 64bit built on Feb 28 2015 23:39:33
_STATISTICS_WRITING_DATE_UTC : 2015-03-19 10:14:15
_STATISTICS_TAGS : BPS DURATION NUMBER_OF_FRAMES NUMBER_OF_BYTES

Video
ID : 1
Format : AVC
Format/Info : Advanced Video Codec
Format profile : [email protected]
Format settings, CABAC : Yes
Format settings, ReFrames : 9 frames
Codec ID : V_MPEG4/ISO/AVC
Duration : 1h 44mn
Bit rate : 7 043 Kbps
Width : 1 280 pixels
Height : 544 pixels
Display aspect ratio : 2.35:1
Frame rate mode : Constant
Frame rate : 23.976 fps
Color space : YUV
Chroma subsampling : 4:2:0
Bit depth : 8 bits
Scan type : Progressive
Bits/(Pixel*Frame) : 0.422
Stream size : 5.03 GiB (83%)
Title : Release for HDCLUB
Writing library : core 72 r1232 c8edc12
Encoding settings : cabac=1 / ref=9 / deblock=1:-3:-3 / analyse=0x3:0x113 / me=umh / subme=9 / psy=1 / psy_rd=1.0:0.0 / mixed_ref=1 / me_range=32 / chroma_me=1 / trellis=2 / 8x8dct=1 / cqm=0 / deadzone=21,11 / chroma_qp_offset=-2 / threads=12 / nr=0 / decimate=0 / mbaff=0 / bframes=3 / b_pyramid=0 / b_adapt=2 / b_bias=0 / direct=3 / wpredb=1 / keyint=250 / keyint_min=25 / scenecut=40 / rc=2pass / mbtree=0 / bitrate=7043 / ratetol=1.0 / qcomp=0.50 / qpmin=10 / qpmax=51 / qpstep=4 / cplxblur=20.0 / qblur=0.5 / ip_ratio=1.40 / pb_ratio=1.30 / aq=1:1.00
Language : English
Default : Yes
Forced : No
DURATION : 01:44:43.246000000
NUMBER_OF_FRAMES : 150647
NUMBER_OF_BYTES : 5531190317
_STATISTICS_WRITING_APP : mkvmerge v7.7.0 ('Six Voices') 64bit built on Feb 28 2015 23:39:33
_STATISTICS_WRITING_DATE_UTC : 2015-03-19 10:14:15
_STATISTICS_TAGS : BPS DURATION NUMBER_OF_FRAMES NUMBER_OF_BYTES

Audio #1
ID : 2
Format : AC-3
Format/Info : Audio Coding 3
Mode extension : CM (complete main)
Format settings, Endianness : Big
Codec ID : A_AC3
Duration : 1h 44mn
Bit rate mode : Constant
Bit rate : 448 Kbps
Channel(s) : 6 channels
Channel positions : Front: L C R, Side: L R, LFE
Sampling rate : 48.0 KHz
Bit depth : 16 bits
Compression mode : Lossy
Stream size : 336 MiB (5%)
Default : Yes
Forced : No

Audio #2
ID : 3
Format :
Format/Info : Digital Theater Systems
Mode : 16
Format settings, Endianness : Big
Codec ID : A_DTS
Duration : 1h 44mn
Bit rate mode : Constant
Bit rate : 768 Kbps
Channel(s) : 6 channels
Channel positions : Front: L C R, Side: L R, LFE
Sampling rate : 48.0 KHz
Bit depth : 24 bits
Compression mode : Lossy
Stream size : 575 MiB (9%)
Title : 5.1 @ 768 kbps
Language : English
Default : No
Forced : No

Text #1
ID : 4
Format : UTF-8
Codec ID : S_TEXT/UTF8
Codec ID/Info : UTF-8 Plain Text
Language : Ukrainian
Default : Yes
Forced : No

Text #2
ID : 5
Format : UTF-8
Codec ID : S_TEXT/UTF8
Codec ID/Info : UTF-8 Plain Text
Language : English
Default : No
Forced : No
Скріншоти
19.03.2015 Зміни в релізі:
1. Додано третю частину
2. Додано звукові доріжки в 1 і 2 частини з кращою якістю звуку
3. Додано субтитри до першої частини

20.03.2015 Вибачте за незручності, прохання перевантажити першу частину - додано звукову доріжку з дубляжем 1+1.

Джерело: &
Особиста оцінка: 10 - без зайвих вагань рекомендую всім!


Бронзовий реліз (на рейтинг впливає 75% завантаженого)
 Трекер:    Зареєстрований   

Завантажити / скачати фільм українською



відео для новачків



 Зареєстрований:   2015-03-20 15:23
 Розмір:   17.24 GB 
 Оцінка фільму:   10/10 (Голосів: 11)
   
Carboni92 
Новенький


З нами з: 02.04.11
Востаннє: 20.10.16
Повідомлень: 4

2011-04-03 11:28  
Вибачте,а чи можливо скачати окремо тільки українську доріжку? Дякую завчасно за відповідь. Happy
Beffis 
Модератор DVD


З нами з: 17.09.09
Востаннє: 03.12.16
Повідомлень: 339

2011-04-29 09:17  
Carboni92
Мені в приват напиши до якої частини тобі потрібна звукова доріжка я витягну і закину тобі.До 1 травня я на Україні так що є ще 2 дні.

For_friends_HD 
Новенький


З нами з: 09.09.12
Востаннє: 03.11.16
Повідомлень: 19

2013-01-30 22:44  
Дуже тихий звук... :-(
RONDO9 
Новенький


З нами з: 16.02.12
Востаннє: 19.11.16
Повідомлень: 10

2014-02-09 11:18  
ДЯКУЮ !!!!!!!!!!!!!!!!!!

zіmoglyad1991 
Новенький


З нами з: 11.01.15
Востаннє: 20.02.15
Повідомлень: 1

2015-01-11 23:19  
народ, я тільки що зарегеструвався, і не розумію нічого, як мені закачати цей фільм на укр. мові ???
kino. 
Модератор відео


З нами з: 27.06.10
Востаннє: 03.12.16
Повідомлень: 2900

2015-01-12 06:30  
zіmoglyad1991 написано:
народ, я тільки що зарегеструвався, і не розумію нічого, як мені закачати цей фільм на укр. мові ???

[Відео] Як завантажувати з Гуртом

don pedro 
Попереджень: 1
Попереджень: 1 


З нами з: 29.06.11
Востаннє: 03.12.16
Повідомлень: 8722

2015-01-12 16:10  
Ходив на третій фільм. Нічого особливого, але непогано. Доволі весело і мило. Дітям сподобалось. Шкода тільки, що це був останній великий фільм для Робіна Вільямса.

УВАГА! У фільмі є Г'ю Джекман (Росомаха) у ролі самого себе.

Мій розширений відгук на фільм:

http://kinostrichka.com/movie/1813/

Beffis 
Модератор DVD


З нами з: 17.09.09
Востаннє: 03.12.16
Повідомлень: 339

2015-03-19 15:20  
Реліз оновлено,приємного перегляду.
igor911 
Відео Гуртом
Відео Гуртом


З нами з: 18.01.08
Востаннє: 03.12.16
Повідомлень: 5113

2015-03-19 17:32  
Beffis, в описі доріжок та МедіаІнфо третьої частини дублюється інфа з другої, виправ, будь ласка.

Додано через 11 хвилин 42 секунди:

і якщо вже переробляв всі частини, то невже не можна було додати другий дубляж від 1+1 до першої частини?

Beffis 
Модератор DVD


З нами з: 17.09.09
Востаннє: 03.12.16
Повідомлень: 339

2015-03-19 18:14  
igor911 написано:
Beffis, в описі доріжок та МедіаІнфо третьої частини дублюється інфа з другої, виправ, будь ласка.

Виправив.

igor911,звісно можна було б додати,але я подумав що це буде зайве.Є оригінальний дубляж фільму, + додатковий обєм.Вінт вже на грані.Якщо комусь потрібна доріжка з 1+1 він завжди може звернутися до мене я закину окремим файлом.

igor911 
Відео Гуртом
Відео Гуртом


З нами з: 18.01.08
Востаннє: 03.12.16
Повідомлень: 5113

2015-03-19 18:44  
Beffis, не сміши, +200Мб не роблять погоди на вінту. Трилогія, як в принципі і кожен реліз у розділі HD (крім обрубків 720р-міні) має бути у максимальній комплектації доріжками/сабами, тим більше тут теж дубляж, і ще невідомо, який краще. А в кого проблеми з місцем на вінту, слабеньким нетом/компом чи ще чимось качають звичайні авішки.

Додай, будь ласка, дубляж від плюсів.

Beffis 
Модератор DVD


З нами з: 17.09.09
Востаннє: 03.12.16
Повідомлень: 339

2015-03-19 19:01  
igor911 написано:
Додай, будь ласка, дубляж від плюсів.

Пропонуєш знову переробляти реліз?

igor911 
Відео Гуртом
Відео Гуртом


З нами з: 18.01.08
Востаннє: 03.12.16
Повідомлень: 5113

2015-03-19 19:03  
так, всього лише додати одну доріжку до першої частини.

Додано через 1 хвилину 7 секунд:

навіть поставлю "золото" на деякий час

Beffis 
Модератор DVD


З нами з: 17.09.09
Востаннє: 03.12.16
Повідомлень: 339

2015-03-19 19:07  
igor911
та
igor911 написано:
так, всього лише додати одну доріжку до першої частини.

щоб додати доріжку мені треба перезбирати по новій першу частину,видалити реліз який вже 7 чоловік качає і поновій викласти реліз на завантаження.Ти і сам це прекрасно знаєш.Це не в золоті справа.

igor911 
Відео Гуртом
Відео Гуртом


З нами з: 18.01.08
Востаннє: 03.12.16
Повідомлень: 5113

2015-03-19 19:09  
"сім раз відміряй, один відріж" Це ж не трилогію ремуксів перекачувати, 4,8 Гб.
Beffis 
Модератор DVD


З нами з: 17.09.09
Востаннє: 03.12.16
Повідомлень: 339

2015-03-19 19:24  
igor911 я не розумію що робиться,в Wild Hogs був такий двох канальний звук з 192кб.с просили видалити і додати 1,5.В цьому фільмі був звук з ліцензійного DVD просили замінити на блюрей з вищим бітрейтом зробив,тепер суперечка виникає що до звуку двохканального з 1+1 і 192кб.с бітрейтом.Я зробив звичайний думаю достатньо одного якісного звуку.
igor911не в обіду,але я не бачу смислу в звуці 2.0 з бітрейтом 192 кб.с.

igor911 
Відео Гуртом
Відео Гуртом


З нами з: 18.01.08
Востаннє: 03.12.16
Повідомлень: 5113

2015-03-19 19:27  
Beffis, тоді немає "смислу" у 90% нашого трекера, бо воно все з ТБ писане взагалі реально в 1.0.
Діло ж не в каналах, а в збереженні та розповсюдженні українських озвучок. Різних, кінотеатральної та від студії 1+1.

Віктор 
Відео Гуртом - субтитрування
Відео Гуртом - субтитрування


З нами з: 09.01.10
Востаннє: 03.12.16
Повідомлень: 8662

2015-03-19 19:28  
igor911 написано:
"сім раз відміряй, один відріж"

Дійсно. Нащо викладати, щоб просто було? А потім ще хтось викладе з усіма наявним укр. доріжками і цей реліз піде в архів. То чи не краще одразу робити нормально, або взагалі не робити?

Beffis ти ж модератор і маєш подавати правильний приклад користувачам, а не схотів додав, схотів ні, (то доріжки 2.0 виклав, бо зробити 5.1 не схотів, не зміг/не знайшов когось попросити) та в мене місця немає, і так далі.

Beffis 
Модератор DVD


З нами з: 17.09.09
Востаннє: 03.12.16
Повідомлень: 339

2015-03-19 19:50  
Віктор написано:
Beffis ти ж модератор і маєш подавати правильний приклад користувачам

Я нарушив правила трекеру?
Віктор написано:
то доріжки 2.0 виклав, бо зробити 5.1 не схотів, не зміг

точніше немав часу
Віктор написано:
та в мене місця немає, і так далі.

в мене реально місця на вінті вже майже немає,причина цього що я стою на воїх роздачах ще з 2009р хоча шансів на те що ці релізи ще хтось вантажитеме немає.

Додано через 3 хвилини 4 секунди:

igor911
Доріжку додам коли всі довантажать на 100%,і не буде завантажуючих.

igor911 
Відео Гуртом
Відео Гуртом


З нами з: 18.01.08
Востаннє: 03.12.16
Повідомлень: 5113

2015-03-19 19:51  
Beffis, є ж тема "Треба допомогти з роздачею (нова тема)", проси там, щоб хтось з групи підтримки взяв на сідування твої минулі релізи.
Beffis 
Модератор DVD


З нами з: 17.09.09
Востаннє: 03.12.16
Повідомлень: 339

2015-03-19 19:54  
igor911 дякую,щось буду думати з приводу цього.
igor911 
Відео Гуртом
Відео Гуртом


З нами з: 18.01.08
Востаннє: 03.12.16
Повідомлень: 5113

2015-03-19 19:58  
Можеш, наприклад, видалити свій реліз http://toloka.to/t13039, який давно вже в архіві і є більш якісні на Гуртом.
Віктор 
Відео Гуртом - субтитрування
Відео Гуртом - субтитрування


З нами з: 09.01.10
Востаннє: 03.12.16
Повідомлень: 8662

2015-03-19 20:35  
igor911 написано:
Можеш, наприклад, видалити свій реліз

Видаляти не треба, бо він проіндексований у ґуґлі, найкраще просто зняти реєстрацію з торенту, закрити тему, щоб не писали, а чому не качає?) і хай собі висить.

igor911 
Відео Гуртом
Відео Гуртом


З нами з: 18.01.08
Востаннє: 03.12.16
Повідомлень: 5113

2015-03-19 22:20  
Віктор написано:
Видаляти не треба,
я мав на увазі видалити файл з вінта, щоб звільнити місце, а не реліз з Толоки.
Ваш часовий пояс: GMT + 2 Години

Нова тема   Відповісти