Завантажити та скачати торренти українською


Рожева пантера: Дилогія / The Pink Panther: Dilogy (2006-2009) 720р Ukr/Eng | Sub Ukr/Eng

Нові коментарі

Нова тема   Відповісти
Автор Повідомлення
Beffis 
Модератор DVD


З нами з: 17.09.09
Востаннє: 10.12.16
Повідомлень: 339

2010-06-03 11:42  
Рожева пантера / The Pink Panther (2006) 720р Ukr/Eng | Sub Ukr/Eng



Жанр: пригодницький, комедія
Країна: США, Чехія

5.1/10 (23598 голосів)
9.31/10 (90 голосів)

Кіностудія / кінокомпанія: Metro-Goldwyn-Mayer (MGM)
Режисер: Шон Леві
Актори: Стів Мартін, Уільям Ебетай, Кевін Кляйн, Бейонсе Ноулз, Жан Рено

Сюжет:
Десятий фільм, присвячений 40-річчю царювання Рожевої пантери на кіноекранах. У новій серії пригод везучий, але страшно некомпетентний французький інспектор Клюзо (Стів Мартін) розслідує вбивство тренера національної команди по футболу, одночасно намагаючись знайти слід зниклого знаменитого діаманта "Рожева пантера", національного надбання пляжу Лугаш.
Рімейк класичної комедії 1963 р. порівнювати з оригіналом важко, оскільки це стрічки різні за стилем і майже жанром. Вони відрізняються так само, як епохи, в які вони були створені.
Старий фільм був типовою для того часу розвагою про хитромудрих і привабливих злочинців і тупуватих, але часом теж симпатичних полісменів (до цієї категорії можна віднести, скажімо «Роззяву» з Бурвілем та Луї Де Фюнесом і багато інших французьких стрічок, деякі з яких йшли і в радянському прокаті). Клузо в ньому навряд чи можна назвати головним героєм: екранного часу у нього не більше, ніж у невловимого злодія Фантома, якого він намагається впіймати. І сказати, що Клузо виходить у фіналі переможцем, було б дуже великим перебільшенням, хоча і на його рахунку є деякі бали.


Тривалість: 01:32:46
Якість:
Відео:
кодек:
розмір кадру: 1280 х 692
бітрейт: 5 200 кб/с

Аудіо # 1:
мова: українська
переклад: двоголосий закадровий
кодек: 2.0
бітрейт: 256 кб/с

Аудіо # 2:
мова: англійська
переклад: оригінал
кодек: 5.1
бітрейт: 384 кб/с

Переклад і озвучення виконано:


Субтитри:
мова: українська
тип: програмні (м'які)
формат: UTF-8

Субтитри:
мова: англійська
тип: програмні (м'які)
формат: UTF-8
MediaInfo:
General
Unique ID : 215182919642285611105971114727568605349 (0xA1E2B90C6F0EBE1AB8D5E766E1C480A5)
Complete name : D:\Гуртом\The Pink Panther Dilogy (2006-2009) 720р UkrEng [Hurtom] by Beffis\The Pink Panther (2006) 720р [Hurtom] by Beffis .mkv
Format : Matroska
Format version : Version 4 / Version 2
File size : 3.79 GiB
Duration : 1h 32mn
Overall bit rate : 5 842 Kbps
Movie name : The Pink Panther (2006) - Release for HDCLUB
Encoded date : UTC 2015-01-15 10:48:55
Writing application : mkvmerge v7.5.0 ('Glass Culture') 64bit built on Jan 4 2015 16:48:44
Writing library : libebml v1.3.1 + libmatroska v1.4.2
DURATION : 01:32:45.536000000
NUMBER_OF_FRAMES : 173923
NUMBER_OF_BYTES : 267145728
_STATISTICS_WRITING_APP : mkvmerge v7.5.0 ('Glass Culture') 64bit built on Jan 4 2015 16:48:44
_STATISTICS_WRITING_DATE_UTC : 2015-01-15 10:48:55
_STATISTICS_TAGS : BPS DURATION NUMBER_OF_FRAMES NUMBER_OF_BYTES

Video
ID : 1
Format : AVC
Format/Info : Advanced Video Codec
Format profile : [email protected]
Format settings, CABAC : Yes
Format settings, ReFrames : 8 frames
Codec ID : V_MPEG4/ISO/AVC
Duration : 1h 32mn
Bit rate : 5 200 Kbps
Width : 1 280 pixels
Height : 692 pixels
Display aspect ratio : 1.85:1
Frame rate mode : Constant
Frame rate : 23.976 fps
Color space : YUV
Chroma subsampling : 4:2:0
Bit depth : 8 bits
Scan type : Progressive
Bits/(Pixel*Frame) : 0.245
Stream size : 3.30 GiB (87%)
Title : Release for HDCLUB
Writing library : core 65 r1074 9d6cc8e
Encoding settings : cabac=1 / ref=8 / deblock=1:-3:-3 / analyse=0x3:0x133 / me=umh / subme=9 / psy_rd=1.0:0.0 / mixed_ref=1 / me_range=32 / chroma_me=1 / trellis=2 / 8x8dct=1 / cqm=0 / deadzone=21,11 / chroma_qp_offset=-2 / threads=6 / nr=0 / decimate=0 / mbaff=0 / bframes=5 / b_pyramid=1 / b_adapt=2 / b_bias=0 / direct=3 / wpredb=1 / keyint=250 / keyint_min=25 / scenecut=40(pre) / rc=2pass / bitrate=5200 / ratetol=1.0 / qcomp=0.60 / qpmin=10 / qpmax=51 / qpstep=4 / cplxblur=20.0 / qblur=0.5 / ip_ratio=1.40 / pb_ratio=1.30 / aq=1:1.00
Language : English
Default : Yes
Forced : No

Audio #1
ID : 2
Format : AC-3
Format/Info : Audio Coding 3
Format profile : Dolby Digital
Mode extension : CM (complete main)
Format settings, Endianness : Big
Codec ID : A_AC3
Duration : 1h 32mn
Bit rate mode : Constant
Bit rate : 256 Kbps
Channel(s) : 2 channels
Channel positions : Front: L R
Sampling rate : 48.0 KHz
Bit depth : 16 bits
Compression mode : Lossy
Stream size : 170 MiB (4%)
Default : Yes
Forced : No

Audio #2
ID : 3
Format : AC-3
Format/Info : Audio Coding 3
Mode extension : CM (complete main)
Format settings, Endianness : Big
Codec ID : A_AC3
Duration : 1h 32mn
Bit rate mode : Constant
Bit rate : 384 Kbps
Channel(s) : 6 channels
Channel positions : Front: L C R, Side: L R, LFE
Sampling rate : 48.0 KHz
Bit depth : 16 bits
Compression mode : Lossy
Stream size : 255 MiB (7%)
Default : No
Forced : No

Text #1
ID : 4
Format : UTF-8
Codec ID : S_TEXT/UTF8
Codec ID/Info : UTF-8 Plain Text
Language : Ukrainian
Default : No
Forced : No

Text #2
ID : 5
Format : UTF-8
Codec ID : S_TEXT/UTF8
Codec ID/Info : UTF-8 Plain Text
Language : English
Default : No
Forced : No


скріншоти


Рожева пантера 2 / The Pink Panther 2 (2009) 720р Ukr/Eng | Sub Ukr/Eng



Жанр: пригодницький, комедія, сімейний, містика
Країна: США

4.8/10 (3899 голосів)
9/10 (1 голосів)

Кіностудія / кінокомпанія: Metro-Goldwyn-Mayer (MGM), Columbia Pictures, Robert Simonds Productions; мейджор - Buena Vista Sony Pictures Releasing (BVSPR)
Режисер: Харольд Цварт
Актори: Стів Мартін, Жан Рено, Емілі Мортімер, Енді Ґарсіа, Альфред Моліна, Джон Кліз, Джеремі Айронс

Сюжет:
Успіх попередньої місії Жака Клюзо дозволив інспектору-катастрофі зайняти місце серед кращих детективів світу. Цього разу йому доведеться зловити міжнародного злочинця, що викрадає історичні цінності, і знову повернути «Рожеву пантеру» на місце.


Тривалість: 01:32:00
Якість:
Відео:
кодек:
розмір кадру: 1280 х 692
бітрейт: 7 127 кб/с

Аудіо # 1:
мова: українська
переклад: професійний дубльований
кодек:
бітрейт: 768 кб/с

Аудіо # 2:
мова: англійська
переклад: оригінал
кодек:
бітрейт: 1 509 кб/с

Переклад і озвучення виконано:


Субтитри:
мова: українська
тип: програмні (м'які)
формат: UTF-8

Субтитри:
мова: англійська
тип: програмні (м'які)
формат: UTF-8


Вдячний за українізацію постера Воїн-Skiff-Бодя
За Українську звукову доріжку ua2004-Skiff
Особиста подяка w2958l

MediaInfo:
General
Unique ID : 172032993400674509200749682248040820986 (0x816C596E6E54E8779ABDA93D6523B0FA)
Complete name : D:\Гуртом\The Pink Panther Dilogy (2006-2009) 720р UkrEng [Hurtom] by Beffis\The Pink Panther 2 (2009) 720р [Hurtom] by Beffis .mkv
Format : Matroska
Format version : Version 4 / Version 2
File size : 6.05 GiB
Duration : 1h 32mn
Overall bit rate : 9 407 Kbps
Movie name : The Pink Panther 2 (2009) - Release for HDCLUB
Encoded date : UTC 2015-01-15 11:12:13
Writing application : mkvmerge v7.5.0 ('Glass Culture') 64bit built on Jan 4 2015 16:48:44
Writing library : libebml v1.3.1 + libmatroska v1.4.2
DURATION : 01:26:28.434000000
NUMBER_OF_FRAMES : 978
NUMBER_OF_BYTES : 41488
_STATISTICS_WRITING_APP : mkvmerge v7.5.0 ('Glass Culture') 64bit built on Jan 4 2015 16:48:44
_STATISTICS_WRITING_DATE_UTC : 2015-01-15 11:12:13
_STATISTICS_TAGS : BPS DURATION NUMBER_OF_FRAMES NUMBER_OF_BYTES

Video
ID : 1
Format : AVC
Format/Info : Advanced Video Codec
Format profile : [email protected]
Format settings, CABAC : Yes
Format settings, ReFrames : 6 frames
Codec ID : V_MPEG4/ISO/AVC
Duration : 1h 32mn
Bit rate : 7 127 Kbps
Width : 1 280 pixels
Height : 692 pixels
Display aspect ratio : 1.85:1
Frame rate mode : Constant
Frame rate : 23.976 fps
Color space : YUV
Chroma subsampling : 4:2:0
Bit depth : 8 bits
Scan type : Progressive
Bits/(Pixel*Frame) : 0.336
Stream size : 4.46 GiB (74%)
Title : Release for HDCLUB
Writing library : core 68 r1183M f21daff
Encoding settings : cabac=1 / ref=6 / deblock=1:-3:-3 / analyse=0x3:0x113 / me=umh / subme=9 / psy_rd=1.0:0.0 / mixed_ref=1 / me_range=32 / chroma_me=1 / trellis=2 / 8x8dct=1 / cqm=0 / deadzone=21,11 / chroma_qp_offset=-2 / threads=12 / nr=0 / decimate=0 / mbaff=0 / bframes=5 / b_pyramid=0 / b_adapt=2 / b_bias=0 / direct=3 / wpredb=1 / keyint=250 / keyint_min=25 / scenecut=40 / rc=2pass / bitrate=7127 / ratetol=1.0 / qcomp=0.60 / qpmin=10 / qpmax=51 / qpstep=4 / cplxblur=20.0 / qblur=0.5 / ip_ratio=1.40 / pb_ratio=1.30 / aq=1:0.80
Language : English
Default : Yes
Forced : No
DURATION : 01:32:01.692000000
NUMBER_OF_FRAMES : 132388
NUMBER_OF_BYTES : 4918664675
_STATISTICS_WRITING_APP : mkvmerge v7.5.0 ('Glass Culture') 64bit built on Jan 4 2015 16:48:44
_STATISTICS_WRITING_DATE_UTC : 2015-01-15 11:12:13
_STATISTICS_TAGS : BPS DURATION NUMBER_OF_FRAMES NUMBER_OF_BYTES

Audio #1
ID : 2
Format :
Format/Info : Digital Theater Systems
Mode : 16
Format settings, Endianness : Big
Codec ID : A_DTS
Duration : 1h 32mn
Bit rate mode : Constant
Bit rate : 768 Kbps
Channel(s) : 6 channels
Channel positions : Front: L C R, Side: L R, LFE
Sampling rate : 48.0 KHz
Bit depth : 16 bits
Compression mode : Lossy
Stream size : 506 MiB (8%)
Title : 5.1 @ 768 kbps - Дублированный
Language : Ukrainian
Default : No
Forced : No

Audio #2
ID : 3
Format :
Format/Info : Digital Theater Systems
Mode : 16
Format settings, Endianness : Big
Codec ID : A_DTS
Duration : 1h 32mn
Bit rate mode : Constant
Bit rate : 1 509 Kbps
Channel(s) : 6 channels
Channel positions : Front: L C R, Side: L R, LFE
Sampling rate : 48.0 KHz
Bit depth : 24 bits
Compression mode : Lossy
Stream size : 993 MiB (16%)
Title : 5.1 @ 1536 kbps
Language : English
Default : No
Forced : No

Text #1
ID : 4
Format : UTF-8
Codec ID : S_TEXT/UTF8
Codec ID/Info : UTF-8 Plain Text
Language : Ukrainian
Default : No
Forced : No

Text #2
ID : 5
Format : UTF-8
Codec ID : S_TEXT/UTF8
Codec ID/Info : UTF-8 Plain Text
Language : English
Default : No
Forced : No


скріншоти



Джерело: &
Особиста оцінка: 10 - без зайвих вагань рекомендую всім!


Бронзовий реліз (на рейтинг впливає 75% завантаженого)
 Трекер:    Зареєстрований   

Завантажити / скачати фільм українською



відео для новачків



 Зареєстрований:   2015-01-15 18:05
 Розмір:   9.83 GB 
 Оцінка фільму:   9.8/10 (Голосів: 4)
   
Віктор 
Відео Гуртом - субтитрування
Відео Гуртом - субтитрування


З нами з: 09.01.10
Востаннє: 09.12.16
Повідомлень: 8664

2010-06-03 12:00  
Молодець друзяко, гарна дилогія. Колись завантажу бо ще не бачив Rolleyes (2)
Beffis 
Модератор DVD


З нами з: 17.09.09
Востаннє: 10.12.16
Повідомлень: 339

2010-06-03 12:04  
Вантаж наздоровя для вас стараюся Українців Happy
Deluxeman 
Localize Team
Localize Team


З нами з: 31.10.09
Востаннє: 10.12.16
Повідомлень: 1606

2010-06-03 13:16  
Beffis Напиши в темі шо то дилогія, бо 1,2 якось не дуже виглядає...
Beffis 
Модератор DVD


З нами з: 17.09.09
Востаннє: 10.12.16
Повідомлень: 339

2010-06-03 13:46  
Deluxeman
Добре дякую за пораду!!!

inki 
VIP


З нами з: 24.10.09
Востаннє: 13.10.16
Повідомлень: 380

2010-06-03 14:25  
Додай газку,а то 5-8 кб щось нетішить Confused
Hidrogen 
Новенький


З нами з: 03.02.10
Востаннє: 24.10.16
Повідомлень: 12

2010-11-27 17:41  
Джерело!
deviator 
Частий відвідувач


З нами з: 16.09.09
Востаннє: 14.10.16
Повідомлень: 31

2011-02-09 22:44  
з Леслі Нільсеном в головній ролі було б цікавіше 
Beffis 
Модератор DVD


З нами з: 17.09.09
Востаннє: 10.12.16
Повідомлень: 339

2015-01-15 18:08  
реліз відновив знову стою на роздачі.
leroykendall 
Модератор HD


З нами з: 03.01.11
Востаннє: 20.11.16
Повідомлень: 749

2015-01-16 07:01  
Beffis
Дуже дякую. Я вже думав: "це все".

Beffis 
Модератор DVD


З нами з: 17.09.09
Востаннє: 10.12.16
Повідомлень: 339

2015-01-16 14:24  
leroykendall написано:
Дуже дякую. Я вже думав: "це все".

Наздоровя.

Додано через 1 хвилину 1 секунду:

Приємного перегляду.

Ваш часовий пояс: GMT + 2 Години

Нова тема   Відповісти