Завантажити та скачати торренти українською


Залізна Людина/ Iron Man (2008) 1080p Ukr/Eng | Sub Ukr/Eng

Нові коментарі

Нова тема   Відповісти
Автор Повідомлення
Слоник24 
Відео Гуртом - підтримка та поширення
Відео Гуртом - підтримка та поширення


З нами з: 10.03.10
Востаннє: 04.12.16
Повідомлень: 228

2010-05-30 12:02  
Залізна Людина/ Iron Man (2008) 1080p Ukr/Eng | Sub Ukr/Eng



Жанр: пригодницький, фентезі, екшн, бойовик, комедія
Країна: США



Кіностудія / кінокомпанія: Paramount Pictures
Режисер: Джон Фавро
Актори: Роберт Дауні мол., Терренс Ховард Дешон, Джефф Бріджес, Гвінет Пелтроу, Леслі Бібб, Шон Тоуб, Фаран Таїр, Сайед Бадрея, Білл Смітровіч, Кларк Грегг

Сюжет:
Мільярдер, плейбой, геніальний винахідник і голова корпорації «Старк Індастріз», що поставляє зброю в усі регіони світу, Тоні Старк відправляється в Афганістан особисто представити свою останню розробку - ракету «Єрихон». Потрапивши в полон до терористів групи «Десять кілець», він переглядає свої погляди на бізнес, вирішуючи спрямувати кошти на благодійність. Втікши з полону, він створює суперсучасний костюм з надміцних матеріалів, що дозволяє швидко наводити порядок у гарячих точках планети. Права рука Старка Обадайа Стерн не поділяє гуманістичних поривів боса, мріючи про створення солдатів-роботів нового покоління.


Прем'єра в Україні: 2008-05-01
Бюджет: $140 000 000
Нагороди:
* 2008, Golden Trailer Awards: Golden Trailer / Summer 2008 Blockbuster;
* 2008, MTV Movie Awards: MTV Movie Award / Best Summer Movie So Far
* 2008, Teen Choice Awards: номинировался на Teen Choice Award / Choice Movie Actor, Choice Movie Actress, Choice Movie Villain, Choice Movie
Тривалість: 2:06:01
Якість:
Відео:
кодек:
розмір кадру: 1920 х 800
бітрейт: 13.5 Мб/с

Аудіо # 1:
мова: українська
переклад: професійний дубльований
кодек: 5.1
бітрейт: 448 кб/с

Аудіо # 2:
мова: англійська
переклад: оригінал
кодек:
бітрейт: 1536 кб/с

Джерело озвучення:


Субтитри # 1-2:
мова: українська | форсовані, повні (DVD)
тип: програмні (м'які)
формат: *.srt

Субтитри # 3-4:
мова: англійська | форсовані, повні
тип: програмні (м'які)
формат: *.srt

MediaInfo
Код:
General
Unique ID                        : 232033132920449462354315821590502524021 (0xAE8FF4B46E277A4283D81CD190554475)
Complete name                    : F:\Iron Man. Dilogy (2008-2010) 1080p [Hurtom]\Iron Man (2008) 1080p [Hurtom].mkv
Format                           : Matroska
Format version                   : Version 2
File size                        : 13.6 GiB
Duration                         : 2h 6mn
Overall bit rate                 : 15.4 Mbps
Movie name                       : HD-Uploaders by -Jackal-
Encoded date                     : UTC 2011-01-11 16:02:40
Writing application              : mkvmerge v3.0.0 ('Hang up your Hang-Ups') built on Dec 12 2009 15:20:35
Writing library                  : libebml v0.7.9 + libmatroska v0.8.1

Video
ID                               : 1
Format                           : AVC
Format/Info                      : Advanced Video Codec
Format profile                   : [email protected]
Format settings, CABAC           : Yes
Format settings, ReFrames        : 5 frames
Codec ID                         : V_MPEG4/ISO/AVC
Duration                         : 2h 6mn
Bit rate                         : 13.5 Mbps
Width                            : 1 920 pixels
Height                           : 800 pixels
Display aspect ratio             : 2.40:1
Frame rate                       : 23.976 fps
Color space                      : YUV
Chroma subsampling               : 4:2:0
Bit depth                        : 8 bits
Scan type                        : Progressive
Bits/(Pixel*Frame)               : 0.367
Stream size                      : 11.6 GiB (85%)
Title                            : Iron Man (2008)
Writing library                  : core 94 r1583 7608d73
Encoding settings                : cabac=1 / ref=5 / deblock=1:-3:-3 / analyse=0x3:0x113 / me=tesa / subme=10 / psy=1 / psy_rd=0.90:0.00 / mixed_ref=1 / me_range=16 / chroma_me=1 / trellis=2 / 8x8dct=1 / cqm=0 / deadzone=21,11 / fast_pskip=0 / chroma_qp_offset=-2 / threads=12 / sliced_threads=0 / nr=0 / decimate=0 / interlaced=0 / constrained_intra=0 / bframes=8 / b_pyramid=2 / b_adapt=2 / b_bias=0 / direct=3 / weightb=1 / weightp=2 / keyint=250 / keyint_min=25 / scenecut=40 / intra_refresh=0 / rc=2pass / mbtree=0 / bitrate=13500 / ratetol=1.0 / qcomp=0.60 / qpmin=10 / qpmax=51 / qpstep=4 / cplxblur=20.0 / qblur=0.5 / ip_ratio=1.40 / pb_ratio=1.30 / aq=1:0.65
Language                         : English
Default                          : Yes
Forced                           : No

Audio #1
ID                               : 2
Format                           :
Format/Info                      : Digital Theater Systems
Codec ID                         : A_DTS
Duration                         : 2h 6mn
Bit rate mode                    : Constant
Bit rate                         : 1 510 Kbps
Channel(s)                       : 6 channels
Channel positions                : Front: L C R, Side: L R, LFE
Sampling rate                    : 48.0 KHz
Bit depth                        : 24 bits
Compression mode                 : Lossy
Stream size                      : 1.33 GiB (10%)
Title                            : 5.1, 1536 kbps
Language                         : English
Default                          : No
Forced                           : No

Audio #2
ID                               : 7
Format                           : AC-3
Format/Info                      : Audio Coding 3
Mode extension                   : CM (complete main)
Codec ID                         : A_AC3
Duration                         : 2h 6mn
Bit rate mode                    : Constant
Bit rate                         : 448 Kbps
Channel(s)                       : 6 channels
Channel positions                : Front: L C R, Side: L R, LFE
Sampling rate                    : 48.0 KHz
Bit depth                        : 16 bits
Compression mode                 : Lossy
Stream size                      : 404 MiB (3%)
Default                          : Yes
Forced                           : No

Text #1
ID                               : 3
Format                           : UTF-8
Codec ID                         : S_TEXT/UTF8
Codec ID/Info                    : UTF-8 Plain Text
Title                            : на афганскую речь
Language                         : Ukrainian
Default                          : No
Forced                           : No

Text #2
ID                               : 4
Format                           : UTF-8
Codec ID                         : S_TEXT/UTF8
Codec ID/Info                    : UTF-8 Plain Text
Title                            : R5
Language                         : Ukrainian
Default                          : No
Forced                           : No

Text #3
ID                               : 5
Format                           : UTF-8
Codec ID                         : S_TEXT/UTF8
Codec ID/Info                    : UTF-8 Plain Text
Title                            : на афганскую речь
Language                         : English
Default                          : No
Forced                           : No

Text #4
ID                               : 6
Format                           : UTF-8
Codec ID                         : S_TEXT/UTF8
Codec ID/Info                    : UTF-8 Plain Text
Language                         : English
Default                          : No
Forced                           : No

Menu
00:00:00.000                     : :00:00:00.000
00:09:06.171                     : :00:09:06.171
00:18:00.579                     : :00:18:00.579
00:26:49.942                     : :00:26:49.942
00:35:01.850                     : :00:35:01.850
00:43:15.259                     : :00:43:15.259
00:52:38.489                     : :00:52:38.489
00:59:24.644                     : :00:59:24.644
01:07:32.423                     : :01:07:32.423
01:11:44.300                     : :01:11:44.300
01:18:31.206                     : :01:18:31.206
01:24:40.575                     : :01:24:40.575
01:35:00.111                     : :01:35:00.111
01:44:29.346                     : :01:44:29.346
01:53:31.471                     : :01:53:31.471
Скріншоти




Подяка: Пану HYTRO за постер

Особиста оцінка: 9 - давно не бачив настільки якісне кіно


 Трекер:    Зареєстрований   

Завантажити / скачати фільм українською



відео для новачків



 Зареєстрований:   2011-01-11 18:40
 Розмір:   13.6 GB 
 Оцінка фільму:   9.8/10 (Голосів: 36)
   
Інші релізи
   Залізна Людина/ Iron Man (2008) 720p Drool  0 / 1   4.29 GB   2012-09-10 11:49 
BMK12 
Відео Гуртом - підтримка та поширення
Відео Гуртом - підтримка та поширення


З нами з: 13.04.09
Востаннє: 05.12.16
Повідомлень: 2983

2010-05-30 16:30  
Трохи за важкий))
Слоник24 
Відео Гуртом - підтримка та поширення
Відео Гуртом - підтримка та поширення


З нами з: 10.03.10
Востаннє: 04.12.16
Повідомлень: 228

2010-05-30 16:52  
BMK12 написано
Цитата:
Трохи за важкий))

так то правда, але якість яка при
Цитата:
бітрейт: 14 мб/с

те також правда!

vitalicio 
VIP


З нами з: 28.06.09
Востаннє: 03.12.16
Повідомлень: 275

2010-05-31 01:36  
Молодець,гарний реліз і чудове оформлення...!!!
BMK12 
Відео Гуртом - підтримка та поширення
Відео Гуртом - підтримка та поширення


З нами з: 13.04.09
Востаннє: 05.12.16
Повідомлень: 2983

2010-05-31 02:50  
Слоник24
Не сперечаюсь... Таки правда.

Слоник24 
Відео Гуртом - підтримка та поширення
Відео Гуртом - підтримка та поширення


З нами з: 10.03.10
Востаннє: 04.12.16
Повідомлень: 228

2010-05-31 07:32  
Цитата:
Молодець,гарний реліз і чудове оформлення...!!!

Спасибі!

Слоник24 
Відео Гуртом - підтримка та поширення
Відео Гуртом - підтримка та поширення


З нами з: 10.03.10
Востаннє: 04.12.16
Повідомлень: 228

2010-05-31 20:45  
Прошу модератора перевірити мій реаліз.
[email protected] 
Свій


З нами з: 10.08.10
Востаннє: 03.12.16
Повідомлень: 51

2011-01-12 21:39  
Хотілось би бачити і другу частину на толоці
Drool 
VIP


З нами з: 17.04.10
Востаннє: 05.12.16
Повідомлень: 1262

2012-08-23 11:48  
А чому скріншоти не відповідають дійсності? 800x333 явно не те, що задумано...
Drool 
VIP


З нами з: 17.04.10
Востаннє: 05.12.16
Повідомлень: 1262

2012-08-27 09:42  
Drool написано:
А чому скріншоти не відповідають дійсності? 800x333 явно не те, що задумано...
Ось справжні скріншоти цього відеоряду:









ratbol 
Модератор HD


З нами з: 03.02.09
Востаннє: 01.12.16
Повідомлень: 1088

2012-08-27 12:26  
Drool
Добре, дякуємо.
Може ще медіаінфо можете викласти?

Drool 
VIP


З нами з: 17.04.10
Востаннє: 05.12.16
Повідомлень: 1262

2012-08-27 12:42  
ratbol написано:
Може ще медіаінфо можете викласти?
Запросто Wink (1)
General
Unique ID : 232033132920449462354315821590502524021 (0xAE8FF4B46E277A4283D81CD190554475)
Complete name : /mnt/disk/Video/Залізна людина Iron Man (2008) 1080p UkrEng Hurtom.mkv
Format : Matroska
File size : 13.6 GiB
Duration : 2h 6mn
Overall bit rate : 15.4 Mbps
Movie name : HD-Uploaders by -Jackal-
Encoded date : UTC 2011-01-11 16:02:40
Writing application : mkvmerge v3.0.0 ('Hang up your Hang-Ups') built on Dec 12 2009 15:20:35
Writing library : libebml v0.7.9 + libmatroska v0.8.1

Video
ID : 1
Format : AVC
Format/Info : Advanced Video Codec
Format profile : [email protected]
Format settings, CABAC : Yes
Format settings, ReFrames : 5 frames
Codec ID : V_MPEG4/ISO/AVC
Duration : 2h 6mn
Bit rate : 13.5 Mbps
Width : 1 920 pixels
Height : 800 pixels
Display aspect ratio : 2.40:1
Frame rate : 23.976 fps
Color space : YUV
Chroma subsampling : 4:2:0
Bit depth : 8 bits
Scan type : Progressive
Bits/(Pixel*Frame) : 0.367
Stream size : 11.6 GiB (85%)
Title : Iron Man (2008)
Writing library : core 94 r1583 7608d73
Encoding settings : cabac=1 / ref=5 / deblock=1:-3:-3 / analyse=0x3:0x113 / me=tesa / subme=10 / psy=1 / psy_rd=0.90:0.00 / mixed_ref=1 / me_range=16 / chroma_me=1 / trellis=2 / 8x8dct=1 / cqm=0 / deadzone=21,11 / fast_pskip=0 / chroma_qp_offset=-2 / threads=12 / sliced_threads=0 / nr=0 / decimate=0 / interlaced=0 / constrained_intra=0 / bframes=8 / b_pyramid=2 / b_adapt=2 / b_bias=0 / direct=3 / weightb=1 / weightp=2 / keyint=250 / keyint_min=25 / scenecut=40 / intra_refresh=0 / rc=2pass / mbtree=0 / bitrate=13500 / ratetol=1.0 / qcomp=0.60 / qpmin=10 / qpmax=51 / qpstep=4 / cplxblur=20.0 / qblur=0.5 / ip_ratio=1.40 / pb_ratio=1.30 / aq=1:0.65
Language : English

Audio #1
ID : 2
Format :
Format/Info : Digital Theater Systems
Codec ID : A_DTS
Duration : 2h 6mn
Bit rate mode : Constant
Bit rate : 1 510 Kbps
Channel(s) : 6 channels
Channel positions : Front: L C R, Side: L R, LFE
Sampling rate : 48.0 KHz
Bit depth : 24 bits
Compression mode : Lossy
Stream size : 1.33 GiB (10%)
Title : 5.1, 1536 kbps
Language : English

Audio #2
ID : 7
Format : AC-3
Format/Info : Audio Coding 3
Mode extension : CM (complete main)
Codec ID : A_AC3
Duration : 2h 6mn
Bit rate mode : Constant
Bit rate : 448 Kbps
Channel(s) : 6 channels
Channel positions : Front: L C R, Side: L R, LFE
Sampling rate : 48.0 KHz
Bit depth : 16 bits
Compression mode : Lossy
Stream size : 404 MiB (3%)

Text #1
ID : 3
Format : UTF-8
Codec ID : S_TEXT/UTF8
Codec ID/Info : UTF-8 Plain Text
Title : на афганскую речь
Language : Ukrainian

Text #2
ID : 4
Format : UTF-8
Codec ID : S_TEXT/UTF8
Codec ID/Info : UTF-8 Plain Text
Title : R5
Language : Ukrainian

Text #3
ID : 5
Format : UTF-8
Codec ID : S_TEXT/UTF8
Codec ID/Info : UTF-8 Plain Text
Title : на афганскую речь
Language : English

Text #4
ID : 6
Format : UTF-8
Codec ID : S_TEXT/UTF8
Codec ID/Info : UTF-8 Plain Text
Language : English

Menu
00:00:00.000 : :00:00:00.000
00:09:06.171 : :00:09:06.171
00:18:00.579 : :00:18:00.579
00:26:49.942 : :00:26:49.942
00:35:01.850 : :00:35:01.850
00:43:15.259 : :00:43:15.259
00:52:38.489 : :00:52:38.489
00:59:24.644 : :00:59:24.644
01:07:32.423 : :01:07:32.423
01:11:44.300 : :01:11:44.300
01:18:31.206 : :01:18:31.206
01:24:40.575 : :01:24:40.575
01:35:00.111 : :01:35:00.111
01:44:29.346 : :01:44:29.346
01:53:31.471 : :01:53:31.471

ratbol 
Модератор HD


З нами з: 03.02.09
Востаннє: 01.12.16
Повідомлень: 1088

2012-08-27 13:31  
Drool
Щось не схоже, що МІ цього фільму.
Або ж Слоник24 багато чого приховував від нас.

Drool 
VIP


З нами з: 17.04.10
Востаннє: 05.12.16
Повідомлень: 1262

2012-08-27 14:00  
ratbol написано:
Щось не схоже, що МІ цього фільму.
Або ж Слоник24 багато чого приховував від нас.

Це MediaInfo саме цієї роздачі. Хеш-сума - 916A1BE7CB481119CF0EBFEB0A1EBE793164BF8F, тільки качав я її з бітснупу...
Скачав, щоб перетиснути собі в 720p в розмір 4,3 гектари, однак на робочій машинці в мене немає звуку, так що не можу перевірити мову звукової доріжки. Але цю роздачу скачала досить велика кількість людей, ніхто не поскаржився. Я тільки випадково помітив, що скріншоти не відповідають.

ratbol 
Модератор HD


З нами з: 03.02.09
Востаннє: 01.12.16
Повідомлень: 1088

2012-08-27 15:05  
Drool
Так, справді з цієї. Просто релізером було багато що не вказано.
Але це не дивно, бо це вже невперше.

Drool 
VIP


З нами з: 17.04.10
Востаннє: 05.12.16
Повідомлень: 1262

2012-08-27 15:41  
P.S. За звітом MediaInfo першою іде не українська, а англійська доріжка. Просто в українській виставлено флажок Default.
ratbol 
Модератор HD


З нами з: 03.02.09
Востаннє: 01.12.16
Повідомлень: 1088

2012-08-27 15:53  
Drool
Так, я бачив. Головне, що вона відтворюється за замовчуванням.

Drool 
VIP


З нами з: 17.04.10
Востаннє: 05.12.16
Повідомлень: 1262

2012-08-28 07:44  
Слоник24 написано:
відео та аудіо - диск Blu-Ray

Доречі, а хіба на блюреї була українська доріжка? Кругом прикручена з DVD...

GolovkoAnton 
Новенький


З нами з: 17.01.11
Востаннє: 04.12.16
Повідомлень: 21

2014-04-12 20:59  
Толочани, роздайте буль ласка
олена юріївна 
Новенький


З нами з: 05.10.10
Востаннє: 04.12.16
Повідомлень: 18

2016-05-08 19:59  
доброго полювання
чи є хто на роздачі? мій торрентклієнт щось задумався

Ваш часовий пояс: GMT + 2 Години

Нова тема   Відповісти