Завантажити та скачати торренти українською


Контрабанда.com.ua - Пароль: КОХАЮ (2010) [FLAC] | Pop-Rock

Нові коментарі

Нова тема   Відповісти
Останній раз роздавалося Myfordownloads (2016-10-09)
Автор Повідомлення
zeron 
Відео Гуртом - підтримка та поширення
Відео Гуртом - підтримка та поширення


З нами з: 07.05.08
Востаннє: 07.12.16
Повідомлень: 83

2010-05-20 05:45  
Контрабанда.com.ua - Пароль: КОХАЮ (2010) [FLAC] | Pop-Rock



Стиль: Pop-Rock
Країна, місто: Україна, Київ
Сайти: Офіційний сайт
Видавець: Comp Music
Виконавці:
Ольга Цепкало - вокал
Денис Сидоренко - ударні
Роман Бабіч - бас
Андрій Криворучко - гітара
Пісні:
    01. Омана (2:56)
    02. Повертайся (3:20)
    03. Втратили контроль (3:09)
    04. Лiто (3:03)
    05. Буду cильною (2:59)
    06. Падаю у сон (3:18)
    07. П'яна аллё (3:11)
    08. Close Your eyes (3:49)
    09. Would You Drive Me Home (2:59)
    10. Ghost On The Phone (2:56)
    11. Don't You Waiting (3:20)
    12. Озирнись (3:49)
EAC
Exact Audio Copy V0.99 prebeta 5 from 4. May 2009

Отчёт EAC об извлечении, выполненном 5. мая 2010, 17:41

Контрабанда.com.ua / Пароль: КОХАЮ

Дисковод: PIONEER DVD-RW DVR-111D Adapter: 0 ID: 0

Режим чтения : Достоверность
Использование точного потока : Да
Отключение кэша аудио : Да
Использование указателей C2 : Нет

Коррекция смещения при чтении : 48
Способность читать области Lead-in и Lead-out : Нет
Заполнение пропущенных сэмплов тишиной : Да
Удаление блоков с тишиной в начале и конце : Нет
При вычислениях CRC использовались нулевые сэмплы : Да
Интерфейс : Встроенный Win32-интерфейс для Win NT/2000

Выходной формат : Внутренние WAV-операции
Формат сэмплов : 44.100 Гц; 16 бит; стерео

TOC извлечённого CD

Трек | Старт | Длительность | Начальный сектор | Конечный сектор
---------------------------------------------------------------------
1 | 0:00.00 | 2:56.12 | 0 | 13211
2 | 2:56.12 | 3:20.18 | 13212 | 28229
3 | 6:16.30 | 3:08.61 | 28230 | 42390
4 | 9:25.16 | 3:02.42 | 42391 | 56082
5 | 12:27.58 | 2:58.58 | 56083 | 69490
6 | 15:26.41 | 3:18.20 | 69491 | 84360
7 | 18:44.61 | 3:11.15 | 84361 | 98700
8 | 21:56.01 | 3:48.62 | 98701 | 115862
9 | 25:44.63 | 2:58.58 | 115863 | 129270
10 | 28:43.46 | 2:56.12 | 129271 | 142482
11 | 31:39.58 | 3:20.18 | 142483 | 157500
12 | 35:00.01 | 3:49.34 | 157501 | 174709

Характеристики диапазона извлечения и сообщения об ошибках

Выбранный диапазон

Имя файла C:\Documents and Settings\Владелец\Рабочий стол\Контрабанда.com.ua - Пароль КОХАЮ (2010) (Flac)\Контрабанда.com.ua - Пароль КОХАЮ.wav

Пиковый уровень 100.0 %
Качество диапазона 99.9 %
CRC копии 83115106
Копирование... OK

Ошибок не произошло

AccurateRip: сводка

Трек 1 нет в базе данных
Трек 2 нет в базе данных
Трек 3 нет в базе данных
Трек 4 нет в базе данных
Трек 5 нет в базе данных
Трек 6 нет в базе данных
Трек 7 нет в базе данных
Трек 8 нет в базе данных
Трек 9 нет в базе данных
Трек 10 нет в базе данных
Трек 11 нет в базе данных
Трек 12 нет в базе данных

Ни одного трека нет в базе AccurateRip

Конец отчёта
Тривалість: 00:38:51
Мова: українська (1-7, 12) англійська (8-11)
Аудіо-кодек: FLAC (image+.cue)
Бітрейт: lossless 984 кб/с
Джерело: rutracker.org
Додаткова інформація:
Контрабанда.com.ua продовжує розорювати поп-рокову ниву – і їй вдається робити це якісно, смачно, опукло. Новий альбом вийшов серед зими, але його назва натякає на доволі весняний настрій – і натяк, схоже, небезпідставний. Якщо дебютна робота тяжіла до "важкого блюзу", то "Пароль: кохаю" склався більш легким, романтичним, прозорим. Втім, змінилася все-таки не манера – звучання гурту упізнаєш одразу – змінився саме настрій. Не те щоб зовсім зникла меланхолія – але палітра стала більш барвистою. Можливо, справа в тому, що авторів стало більше – другий альбом містить твори практично всіх учасників гурту – тож, природно, стало більше відтінків. Втім, можливо, справа у змінах внутрішньої географії – точно це знають лише самі музиканти. А от ще одна характерна особливість лишилася незмінною – тут є пісні як українською, так і англійською (щоправда, цього разу англомовна частина складає лише третину диску). Як би там не було, платівка лишає по собі позитивне враження – наче вдихнув свіжого, ароматного повітря. І ще – легкий присмак недоговореності. Тобто – далі буде..

Між іншим, "Don't you waiting" вже встигла стати кращою піснею серпня'2009 у стилі "поп-музика" за версією американського конкурсу "Song of the year". УМКА
Якщо Ви справді бажаєте підтримати українське - після прослуховування, якщо музика вам сподобалась, придбайте ліцензійний диск. Підтримаймо вітчизняних виконавців!


Срібний реліз (на рейтинг впливає 50% завантаженого)
 Трекер:    Зареєстрований   

Завантажити / скачати українську музику



відео для новачків



 Зареєстрований:   2010-05-20 05:45
 Розмір:   287 MB 
 Оцінка музики:   10/10 (Голосів: 6)
   
vinnipuhVIV 
Новенький


З нами з: 09.10.09
Востаннє: 03.11.16
Повідомлень: 1

2010-06-08 12:01  
Роздайте хтось будь-ласка!
zeron 
Відео Гуртом - підтримка та поширення
Відео Гуртом - підтримка та поширення


З нами з: 07.05.08
Востаннє: 07.12.16
Повідомлень: 83

2010-06-08 14:20  
Я вже тут, помпуйте))
Ваш часовий пояс: GMT + 2 Години

Нова тема   Відповісти