Завантажити та скачати торренти українською


Зубна фея / Tooth Fairy (2010) 720p Ukr/Eng | Sub Ukr/Eng

Нові коментарі

Нова тема   Відповісти
Автор Повідомлення
Віктор 
Відео Гуртом - субтитрування
Відео Гуртом - субтитрування


З нами з: 09.01.10
Востаннє: 10.12.16
Повідомлень: 8664

2010-05-18 12:14  
Зубна фея / Tooth Fairy (2010) 720p Ukr/Eng | Sub Ukr/Eng

Зубна фея / Tooth Fairy (2010) 720p Ukr/Eng | Sub Ukr/Eng

«You can't handle the tooth.»


Жанр: комедія, родинний, фентезі
Країна: США, Канада



Кіностудія / кінокомпанія: Blumhouse Productions, Foxvan Productions, Mayhem Pictures, Twentieth Century-Fox Film Corporation, Walden Media
Режисер: Майкл Лембек (Michael Lembeck)
Композитор: Джордж С. Клінтон (George S. Clinton)
Актори: Двейн Джонсон (Dwayne Johnson), Ешлі Джад (Ashley Judd), Стефен Мерчант (Stephen Merchant), Раян Шеклер (Ryan Sheckler), Сет МакФарлейн (Seth MacFarlane), Джулі Ендрюс (Julie Andrews), Чейз Еллісон (Chase Ellison), Дестіні Вайтлок (Destiny Whitlock), Брендон Т. Джексон (Brandon T. Jackson), Ден Джоффре (Dan Joffre), Еллі Гарві (Ellie Harvie), Берклі Гоуп (Barclay Hope), Майкл Дейнджерфілд (Michael Daingerfield), Джош Емерсон (Josh Emerson), Дейл Вульф (Dale Wolfe), Біллі Крістал (Billy Crystal) та інші.

Сюжет:
Відомий здоровань Двейн Джонсон - фей з крильцями. Звісно - таке може бути лише в комедії, бо це справді смішно навіть чути, не лише бачити. Саме таке покарання було для героя Джонсона - брутального гокеїста Дерека Томпсона: його змусили ночами підробляти зубною феєю, яка за американською традицією, вночі забирає молочні зуби дітлахів в обмін на долар у подарунок. Може помахавши крильцями цинічний спортсмен і справді трохи повірить у магію?
Цікаві факти

Цікаві факти про фільм


• Гокейні сцени були зняті на старій арені яку вже не використовують у спортивних цілях - Great Western Forum за участю гравців команди Los Angeles Kings.
• Роль у "Зубній феї" стала першою акторською роботою Біллі Крістала після комедії "Аналізуй те" в 2002 році. За весь цей час він взяв участь лише в озвученні мультфільму " Тачки" (2006) і англомовній версії "Замок-мандрівник" (2004).
• Бюджет - $48,000,000
MediaInfo

Код:
General
Unique ID                        : 241380020210709185110628070155717866443 (0xB59819D3EE549FC08521A6F4A12E73CB)
Complete name                    : D:\HURTOM\Tooth Fairy (2010) [Ukr, Eng] 720p [Hurtom].mkv
Format                           : Matroska
Format version                   : Version 2
File size                        : 6.86 GiB
Duration                         : 1h 41mn
Overall bit rate                 : 9 675 Kbps
Movie name                       : Tooth Fairy (2010)  [Ukr, Eng] 720p [Hurtom]
Encoded date                     : UTC 2012-01-21 11:47:10
Writing application              : mkvmerge v5.0.1 ('Es ist Sommer') built on Oct  9 2011 11:55:43
Writing library                  : libebml v1.2.2 + libmatroska v1.3.0

Video
ID                               : 1
Format                           : AVC
Format/Info                      : Advanced Video Codec
Format profile                   : [email protected]
Format settings, CABAC           : Yes
Format settings, ReFrames        : 8 frames
Codec ID                         : V_MPEG4/ISO/AVC
Duration                         : 1h 41mn
Bit rate                         : 7 500 Kbps
Width                            : 1 280 pixels
Height                           : 692 pixels
Display aspect ratio             : 1.850
Frame rate                       : 23.976 fps
Color space                      : YUV
Chroma subsampling               : 4:2:0
Bit depth                        : 8 bits
Scan type                        : Progressive
Bits/(Pixel*Frame)               : 0.353
Stream size                      : 5.18 GiB (75%)
Title                            : Tooth Fairy (2010)  [Ukr, Eng] 720p [Hurtom]
Writing library                  : core 92 r1510 33d382a
Encoding settings                : cabac=1 / ref=8 / deblock=1:-3:-3 / analyse=0x3:0x133 / me=umh / subme=9 / psy=1 / psy_rd=0.90:0.00 / mixed_ref=1 / me_range=16 / chroma_me=1 / trellis=2 / 8x8dct=1 / cqm=0 / deadzone=21,11 / fast_pskip=0 / chroma_qp_offset=-2 / threads=12 / sliced_threads=0 / nr=0 / decimate=1 / interlaced=0 / constrained_intra=0 / bframes=5 / b_pyramid=2 / b_adapt=2 / b_bias=0 / direct=3 / wpredb=1 / wpredp=2 / keyint=250 / keyint_min=25 / scenecut=40 / intra_refresh=0 / rc_lookahead=0 / rc=2pass / mbtree=0 / bitrate=7500 / ratetol=1.0 / qcomp=0.60 / qpmin=10 / qpmax=51 / qpstep=4 / cplxblur=20.0 / qblur=0.5 / vbv_maxrate=40000 / vbv_bufsize=30000 / ip_ratio=1.40 / pb_ratio=1.30 / aq=1:1.00 / nal_hrd=none
Language                         : English
Default                          : Yes
Forced                           : No

Audio #1
ID                               : 2
Format                           : AC-3
Format/Info                      : Audio Coding 3
Mode extension                   : CM (complete main)
Codec ID                         : A_AC3
Duration                         : 1h 41mn
Bit rate mode                    : Constant
Bit rate                         : 448 Kbps
Channel(s)                       : 6 channels
Channel positions                : Front: L C R, Side: L R, LFE
Sampling rate                    : 48.0 KHz
Bit depth                        : 16 bits
Compression mode                 : Lossy
Stream size                      : 325 MiB (5%)
Title                            : 5.1 @ 448 kbps - професійний дубльований; Невафільм Україна; Ліцензія Blu Ray
Language                         : Ukrainian
Default                          : Yes
Forced                           : No

Audio #2
ID                               : 3
Format                           :
Format/Info                      : Digital Theater Systems
Codec ID                         : A_DTS
Duration                         : 1h 41mn
Bit rate mode                    : Constant
Bit rate                         : 1 510 Kbps
Channel(s)                       : 6 channels
Channel positions                : Front: L C R, Side: L R, LFE
Sampling rate                    : 48.0 KHz
Bit depth                        : 24 bits
Compression mode                 : Lossy
Stream size                      : 1.07 GiB (16%)
Title                            : 5.1 @ 1536 kbps
Language                         : English
Default                          : No
Forced                           : No

Audio #3
ID                               : 4
Format                           : AC-3
Format/Info                      : Audio Coding 3
Mode extension                   : CM (complete main)
Codec ID                         : A_AC3
Duration                         : 1h 41mn
Bit rate mode                    : Constant
Bit rate                         : 224 Kbps
Channel(s)                       : 2 channels
Channel positions                : Front: L R
Sampling rate                    : 48.0 KHz
Bit depth                        : 16 bits
Compression mode                 : Lossy
Stream size                      : 163 MiB (2%)
Title                            : 2.0 @ 224 kbps - Commentary by Director Michael Lembeck
Language                         : English
Default                          : No
Forced                           : No

Text #1
ID                               : 5
Format                           : UTF-8
Codec ID                         : S_TEXT/UTF8
Codec ID/Info                    : UTF-8 Plain Text
Title                            : Форсовані
Language                         : Ukrainian
Default                          : Yes
Forced                           : No

Text #2
ID                               : 6
Format                           : UTF-8
Codec ID                         : S_TEXT/UTF8
Codec ID/Info                    : UTF-8 Plain Text
Title                            : Повні
Language                         : Ukrainian
Default                          : No
Forced                           : No

Text #3
ID                               : 7
Format                           : UTF-8
Codec ID                         : S_TEXT/UTF8
Codec ID/Info                    : UTF-8 Plain Text
Title                            : SDH
Language                         : English
Default                          : No
Forced                           : No

Text #4
ID                               : 8
Format                           : UTF-8
Codec ID                         : S_TEXT/UTF8
Codec ID/Info                    : UTF-8 Plain Text
Title                            : Commentary
Language                         : English
Default                          : No
Forced                           : No
Релізи та інформація про озвучення/дублювання

720p Ukr/Eng | Sub Ukr/Eng (6.86 GB) — професійний дубльований Невафільм Україна ліцензія Blu-Ray
Ukr/Eng | Sub Ukr/Eng (2.18 GB) — професійний дубльований Невафільм Україна ліцензія Blu-Ray

Фільм дубльований студією Невафільм Україна на замовлення кінокомпанії 20 століття Фокс та компанії Gemini
Переклад: Олега Колеснікова
Режисер дубляжу: Олег Головко
Звукорежисер: Фелікс Трескунов
Координатор дубляжу: Лариса Шаталова
Ролі дублювали: Двейн Джонсон/Дерек Томпсон — Юрій Ребрик, Стефан Мерчант/Трейсі — Андрій Бурлуцький, Біллі Крістал/Джеррі — Ярослав Чорненький, Ведучий 1 — Михайло Войчук, Джулі Ендрюс/Лілі — Ніна Касторф, Ешлі Джад/Карлі — Катерина Коновалова, Берклі Гоуп/Тренер — Євген Пашин, Чіз Еллісон/Ренді — Тарас Нестеренко, Раян Шеклер/Мік — Максим Запісочний, Дестені Вайтлок/Тесс — Ліза Зіновенко, Стів Ліві — Михайло Тишин, Сет МакФарлен/Зіґі — Дмитро Гаврилов, Джош Емерсон/Кайл — Дмитро Сова, Деріан Провост/Гейб — Богдан Темченко, Лі Тічон/Андреас — Дмитро Бузинський, Юрій Коваленко, Керолайн — Людмила Ардельян, Брендан Меєр/Бен — Валентин Піроженко. В епізодах: Сергій Солопай, Людмила Барбір.
Тривалість: 01:41:29
Якість: 720 (CtrlHD) encoder: boxXx
Відео:
кодек:
розмір кадру: 1280х692
бітрейт: 7500 кб/с

Аудіо # 1:
мова: українська
переклад: професійний дубльований Невафільм Україна | Ліцензія Blu Ray
кодек: 5.1
бітрейт: 448 кб/с

Аудіо # 2:
мова: англійська
переклад: ориґінал
кодек: 5.1
бітрейт: 1536 кб/с

Аудіо # 3:
мова: англійська (коментарі)
кодек: 2.0
бітрейт: 224 кб/с

Субтитри # 1-2:
мова: українська (форсовані та повні)
тип: програмні (м'які)
формат: *.srt , (обробка antikillW)

Субтитри # 3-4:
мова: англійська (до фільму і до коментарів)
тип: програмні (м'які)
формат: *.srt

Скріншоти:





За українізацію постера подяка thefir-у,
за надану інформацію про дублювання дякую vizzi,
особиста подяка Beffis-у


Джерело: &
Особиста оцінка: 7


 Трекер:    Зареєстрований   

Завантажити / скачати фільм українською



відео для новачків



 Зареєстрований:   2012-01-21 14:29
 Розмір:   6.86 GB 
 Оцінка фільму:   8.3/10 (Голосів: 28)
   
Інші релізи
   Зубна фея / Tooth Fairy (2010) 1080 Ukr/Eng | Sub Ukr/Eng kvvdvd  5 / 0   8.26 GB   2016-11-02 16:48 
   Зубна фея / Tooth Fairy (2010) Ukr/Eng | Sub Ukr/Eng karvai0  6 / 0   2.18 GB   2011-03-28 23:18 
   Зубна фея / Tooth Fairy (2010) DVD5 Rus/Rus/Ukr |Sub Rus/Ukr zaider  1 / 0   4.36 GB   2010-02-23 19:45 
Beffis 
Модератор DVD


З нами з: 17.09.09
Востаннє: 10.12.16
Повідомлень: 339

2010-05-19 20:04  
На слідуючий тиждень почну качати релізеру 555.Фільм бомба!!!
kolian4ik 
Частий відвідувач


З нами з: 14.02.10
Востаннє: 04.12.16
Повідомлень: 38

2010-05-24 19:50  
ага фільм класний Happy
genius_lg 
Свій


З нами з: 28.01.10
Востаннє: 19.05.16
Повідомлень: 110

2010-12-05 19:13  
для перегляду з сім'єю! на 8
victordnepr 
Свій


З нами з: 16.01.11
Востаннє: 10.12.16
Повідомлень: 77

2011-08-27 06:36  
люди дайте завантажити.... вже тиждень сиджу а тільки 17.1 відсотків (((((
Віктор 
Відео Гуртом - субтитрування
Відео Гуртом - субтитрування


З нами з: 09.01.10
Востаннє: 10.12.16
Повідомлень: 8664

2011-08-27 10:12  
victordnepr написано:
люди дайте завантажити.... вже тиждень сиджу а тільки 17.1 відсотків (((((


З роздачі пішов, тому вибачайте, хоч мені й подобаються фільми з Двейном, але цей не в їх числі. Пишіть в приват тим хто завантажив може знайдуться добрі люди.

victordnepr 
Свій


З нами з: 16.01.11
Востаннє: 10.12.16
Повідомлень: 77

2011-08-27 19:44  
відправив прохання.... будемо чекати......
victordnepr 
Свій


З нами з: 16.01.11
Востаннє: 10.12.16
Повідомлень: 77

2011-09-17 21:04  
нарешті завантажив Happy

фільм супер 10 з 10 рекомендую для перегляду!

Віктор 
Відео Гуртом - субтитрування
Відео Гуртом - субтитрування


З нами з: 09.01.10
Востаннє: 10.12.16
Повідомлень: 8664

2012-01-21 14:34  
Торрент оновлено, сцен-ріп замінено на нормальний від CtrlHD, замінено укр. доріжку з DVD на доріжку з Blu-ray. Тому старий файл видаліть і завантажте цей торрент.

Ваш часовий пояс: GMT + 2 Години

Нова тема   Відповісти