Завантажити та скачати торренти українською


Львів, відомий та невідомий (2005)

Нові коментарі

Нова тема   Відповісти
Автор Повідомлення
MBear 
Новенький


З нами з: 06.02.10
Востаннє: 17.02.16
Повідомлень: 15

2010-05-04 13:41  
Львів, відомий та невідомий (2005)



Жанр: документальний
Країна: Україна
Кіностудія: Музичний центр
Сюжет:
Львів - місто незвичайне. Властива тільки йому атмосфера, безліч історичних пам'ятників, затишні кав'ярні, привітні жителі - нікого не залишать байдужим. Центр міста внесений до списку усесвітньої спадщини ЮНЕСЬКО, адже в ній збереглася значна частка архітектурних пам'ятників ХІv-хvІІ століть. За словами львівського історика Ярослава Грицака, образ Львова складається з двох елементів: європейськість міста - ідентифікація з Европой як архітектурно, так і культурно; і образ Львова як «українського Пьемонта» - акцент на українському характері. У цьому прекрасному місті народилися, жили і працювали багато відомих діячів української, польської, німецької, єврейської і російської історії і культури. Про це і багато чому іншому Вам розповідять в цьому фільмі.


Частина 1

Тривалість: 01:09:03
Якість:
Відео:
кодек:
розмір кадру: 640х480
бітрейт: AVG 2048 кб/с

Аудіо:
мова: українська, англійська
переклад: оригінал
кодек: MP2
бітрейт: 224 кб/с

мова: російська
переклад: оригінал
кодек: MP3
бітрейт: 224 кб/с
Lviv known and unknown_part1.mkv.MediaInfo.txt

General
Complete name : E:\Video\sm\Lviv known and unknown_part1.mkv
Format : Matroska
File size : 1.31 GiB
Duration : 1h 9mn
Overall bit rate : 2 722 Kbps
Encoded date : UTC 2010-02-27 12:43:53
Writing application : mkvmerge v3.2.0 ('Beginnings') built on Feb 12 2010 16:46:17
Writing library : libebml v0.7.9 + libmatroska v0.8.1

Video
ID : 1
Format : AVC
Format/Info : Advanced Video Codec
Format profile : [email protected]
Format settings, CABAC : Yes
Format settings, ReFrames : 1 frame
Muxing mode : Container [email protected]
Codec ID : V_MPEG4/ISO/AVC
Duration : 1h 9mn
Bit rate : 1 996 Kbps
Nominal bit rate : 2 048 Kbps
Width : 640 pixels
Height : 480 pixels
Display aspect ratio : 4:3
Frame rate mode : Variable
Frame rate : 25.000 fps
Resolution : 8 bits
Colorimetry : 4:2:0
Scan type : Progressive
Bits/(Pixel*Frame) : 0.260
Stream size : 986 MiB (73%)
Writing library : core 68 r1195bm 5d75a9b
Encoding settings : cabac=1 / ref=1 / deblock=1:0:0 / analyse=0x3:0x13 / me=umh / subme=7 / psy_rd=0.0:0.0 / mixed_ref=0 / me_range=16 / chroma_me=1 / trellis=1 / 8x8dct=1 / cqm=0 / deadzone=21,11 / chroma_qp_offset=0 / threads=1 / thread_queue=1 / nr=0 / decimate=1 / mbaff=0 / bframes=0 / keyint=250 / keyint_min=25 / scenecut=40 / rc=2pass / bitrate=2048 / ratetol=1.0 / qcomp=0.60 / qpmin=10 / qpmax=51 / qpstep=4 / cplxblur=20.0 / qblur=0.5 / ip_ratio=1.40 / aq=2:1.00
Language : Ukrainian

Audio #1
ID : 2
Format : MPEG Audio
Format version : Version 1
Format profile : Layer 2
Codec ID : A_MPEG/L2
Codec ID/Hint : MP2
Duration : 1h 9mn
Bit rate mode : Constant
Bit rate : 224 Kbps
Channel(s) : 2 channels
Sampling rate : 48.0 KHz
Stream size : 111 MiB (8%)
Language : Ukrainian

Audio #2
ID : 3
Format : MPEG Audio
Format version : Version 1
Format profile : Layer 2
Codec ID : A_MPEG/L2
Codec ID/Hint : MP2
Duration : 1h 9mn
Bit rate mode : Constant
Bit rate : 224 Kbps
Channel(s) : 2 channels
Sampling rate : 48.0 KHz
Stream size : 111 MiB (8%)
Language : English

Audio #3
ID : 4
Format : MPEG Audio
Format version : Version 1
Format profile : Layer 3
Codec ID : A_MPEG/L3
Codec ID/Hint : MP3
Duration : 1h 9mn
Bit rate mode : Constant
Bit rate : 224 Kbps
Channel(s) : 2 channels
Sampling rate : 48.0 KHz
Stream size : 111 MiB (8%)
Language : Russian

Text #1
ID : 5
Format : UTF-8
Codec ID : S_TEXT/UTF8
Codec ID/Info : UTF-8 Plain Text
Language : English

Text #2
ID : 6
Format : UTF-8
Codec ID : S_TEXT/UTF8
Codec ID/Info : UTF-8 Plain Text
Language : Russian
Частина 2

Тривалість: 01:07:38
Якість:
Відео:
кодек:
розмір кадру: 640х480
бітрейт: AVG 2048 кб/с

Аудіо:
мова: українська, англійська, російська
переклад: оригінал
кодек: A_AC3
бітрейт: 192 кб/с
Lviv known and unknown_part2.mkv.MediaInfo.txt

General
Complete name : E:\Video\sm\Lviv known and unknown_part2.mkv
Format : Matroska
File size : 1.24 GiB
Duration : 1h 7mn
Overall bit rate : 2 626 Kbps
Encoded date : UTC 2010-02-27 21:04:01
Writing application : mkvmerge v3.2.0 ('Beginnings') built on Feb 12 2010 16:46:17
Writing library : libebml v0.7.9 + libmatroska v0.8.1

Video
ID : 1
Format : AVC
Format/Info : Advanced Video Codec
Format profile : [email protected]
Format settings, CABAC : Yes
Format settings, ReFrames : 1 frame
Muxing mode : Container [email protected]
Codec ID : V_MPEG4/ISO/AVC
Duration : 1h 7mn
Bit rate : 1 998 Kbps
Nominal bit rate : 2 048 Kbps
Width : 640 pixels
Height : 480 pixels
Display aspect ratio : 4:3
Frame rate mode : Variable
Frame rate : 25.000 fps
Resolution : 8 bits
Colorimetry : 4:2:0
Scan type : Progressive
Bits/(Pixel*Frame) : 0.260
Stream size : 967 MiB (76%)
Writing library : core 68 r1195bm 5d75a9b
Encoding settings : cabac=1 / ref=1 / deblock=1:0:0 / analyse=0x3:0x13 / me=umh / subme=7 / psy_rd=0.0:0.0 / mixed_ref=0 / me_range=16 / chroma_me=1 / trellis=1 / 8x8dct=1 / cqm=0 / deadzone=21,11 / chroma_qp_offset=0 / threads=1 / thread_queue=1 / nr=0 / decimate=1 / mbaff=0 / bframes=0 / keyint=250 / keyint_min=25 / scenecut=40 / rc=2pass / bitrate=2048 / ratetol=1.0 / qcomp=0.60 / qpmin=10 / qpmax=51 / qpstep=4 / cplxblur=20.0 / qblur=0.5 / ip_ratio=1.40 / aq=2:1.00
Language : Ukrainian

Audio #1
ID : 2
Format : AC-3
Format/Info : Audio Coding 3
Format_Settings_ModeExtension : CM (complete main)
Codec ID : A_AC3
Duration : 1h 7mn
Bit rate mode : Constant
Bit rate : 192 Kbps
Channel(s) : 2 channels
Channel positions : Front: L R
Sampling rate : 48.0 KHz
Stream size : 92.9 MiB (7%)
Language : Ukrainian

Audio #2
ID : 3
Format : AC-3
Format/Info : Audio Coding 3
Format_Settings_ModeExtension : CM (complete main)
Codec ID : A_AC3
Duration : 1h 7mn
Bit rate mode : Constant
Bit rate : 192 Kbps
Channel(s) : 2 channels
Channel positions : Front: L R
Sampling rate : 48.0 KHz
Stream size : 92.9 MiB (7%)
Language : English

Audio #3
ID : 4
Format : AC-3
Format/Info : Audio Coding 3
Format_Settings_ModeExtension : CM (complete main)
Codec ID : A_AC3
Duration : 1h 7mn
Bit rate mode : Constant
Bit rate : 192 Kbps
Channel(s) : 2 channels
Channel positions : Front: L R
Sampling rate : 48.0 KHz
Stream size : 92.9 MiB (7%)
Language : Russian

Text #1
ID : 5
Format : UTF-8
Codec ID : S_TEXT/UTF8
Codec ID/Info : UTF-8 Plain Text
Language : English

Text #2
ID : 6
Format : UTF-8
Codec ID : S_TEXT/UTF8
Codec ID/Info : UTF-8 Plain Text
Language : Russian
Субтитри:
мова: англійська, російська.

Скріншоти:

Частина 1



Частина 2



Золотий реліз (завантажене не впливає на рейтинг)
 Трекер:    Зареєстрований   

Завантажити / скачати фільм українською



відео для новачків



 Зареєстрований:   2010-05-04 13:41
 Розмір:   2.55 GB 
 Оцінка фільму:   9.6/10 (Голосів: 17)
   
metalizator2008 
VIP


З нами з: 08.03.09
Востаннє: 01.12.16
Повідомлень: 278

2010-05-04 18:44  
в мене є цей фільм! Мега реліз, дякую!
Ваш часовий пояс: GMT + 2 Години

Нова тема   Відповісти