Завантажити та скачати торренти українською


VovaZil'Vova - Сихів (Мій район) (2006) | Rap / Hip-Hop

Нові коментарі

Нова тема   Відповісти
Автор Повідомлення
jd_alex 
Новенький


З нами з: 01.05.10
Востаннє: 30.11.16
Повідомлень: 2

2010-05-02 08:55  
VovaZil'Vova - Сихів (Мій район) (2006) | Rap / Hip-Hop

Стиль: Rap Hip-Hop
Країна, місто: Україна, Львів
Сайти:
Виконавці: VovaZil'Vova

Тривалість: 00:03:56
Якість:
Відео:
кодек: MPEG-2 DVD
розмір кадру: 720 х 576
бітрейт: 8000 кб/с

Аудіо:
мова: українська
кодек: MP3
бітрейт: 224 кб/с

Скріншоти:



Особиста оцінка: 8 - мені сподобалося
технічна інформація
General
Format : MPEG-PS
File size : 96.3 MiB
Duration : 3mn 56s
Overall bit rate : 3 413 Kbps

Video
ID : 224 (0xE0)
Format : MPEG Video
Format version : Version 2
Format profile : [email protected]
Format settings, BVOP : Yes
Format settings, Matrix : Default
Format_Settings_GOP : M=3, N=15
Duration : 3mn 56s
Bit rate mode : Variable
Bit rate : 3 054 Kbps
Nominal bit rate : 8 000 Kbps
Width : 720 pixels
Height : 576 pixels
Display aspect ratio : 4:3
Frame rate : 25.000 fps
Standard : PAL
Resolution : 8 bits
Colorimetry : 4:2:0
Scan type : Interlaced
Scan order : Top Field First
Bits/(Pixel*Frame) : 0.295
Stream size : 86.2 MiB (89%)

Audio
ID : 192 (0xC0)
Format : MPEG Audio
Format version : Version 1
Format profile : Layer 2
Duration : 3mn 56s
Bit rate mode : Constant
Bit rate : 224 Kbps
Channel(s) : 2 channels
Sampling rate : 48.0 KHz
Stream size : 6.32 MiB (7%)


Золотий реліз (завантажене не впливає на рейтинг)
 Трекер:    Зареєстрований   

Завантажити / скачати кліп українською



відео для новачків



 Зареєстрований:   2010-05-02 08:55
 Розмір:   96 MB 
 Оцінка кліпу:   10/10 (Голосів: 5)
   
ssTAss 
Модератор музики


З нами з: 05.07.08
Востаннє: 03.12.16
Повідомлень: 10930

2011-03-12 01:12  

mr.killer 
Свій


З нами з: 11.08.10
Востаннє: 30.11.16
Повідомлень: 146

2016-08-04 10:12  
Роздайте будь ласка, гарний кліпчик
Ваш часовий пояс: GMT + 2 Години

Нова тема   Відповісти