Завантажити та скачати торренти українською


Погані хлопці / Bad Boys (1995) 720p Ukr/Eng

Нові коментарі

Нова тема   Відповісти
Автор Повідомлення
imlevchenko 
Свій


З нами з: 10.06.09
Востаннє: 19.11.16
Повідомлень: 80

2010-04-30 11:34  
Погані хлопці / Bad Boys (1995) 720p Ukr/Eng



Жанр: бойовик, комедія, пригодницький
Країна: США

6.6 (51,671 голосів)
9.11 (140 голосів)

Кіностудія / кінокомпанія: Columbia Pictures Corporation
Режисер: Майкл Бей
Актори: Мартін Лоуренс, Вілл Сміт, Тіа Леоні, Чекі Каріо, Тереза Рендл, Мардж Хелгенбергер, Нестор Серрано, Хуліо Оскар Мечосо, Саверіо Гуерра, Анна Томсон, Кевін Корріген, Майкл Імперіолі, Джо Пантоліано

Сюжет:
Вони - повна протилежність один одного. Один з них - зразковий сім'янин і не має багато грошей, інший багатий і користується всіма благами холостяцького життя. Крім дружби їх об'єднує робота в поліції.
Їх нове завдання - зловити жорстокого злочинця, що вкрав наркотики з секретного складу, а також врятувати дівчину, яка випадково опинилася на його шляху. Але для цього друзям доведеться помінятися місцями...


Тривалість: 01:57:31
Якість: 720p
Відео:
кодек:
розмір кадру: 1280 x 720
бітрейт: 4 523 кб/с

Аудіо # 1:
мова: українська
переклад: багатоголосий закадровий
кодек: 5.1
бітрейт: 384 кб/с

Аудіо # 2:
мова: англійська
переклад: оригінал
кодек: 5.1
бітрейт: 384 кб/с

Переклад і озвучення виконано:
Скріншоти:






Джерело: &
Особиста оцінка: 8 - мені сподобалося

Звук та постер взяв з роздачі _oles: Погані хлопці 1&2 / Bad Boys 1&2

Погані хлопці 2: 720p (4.25 GB)

13.03.2011 Оновив торент файл, перевантажте будь-ласка


Срібний реліз (на рейтинг впливає 50% завантаженого)
 Трекер:    Зареєстрований   

Завантажити / скачати фільм українською



відео для новачків



 Зареєстрований:   2011-03-13 21:40
 Розмір:   4.36 GB 
 Оцінка фільму:   9.7/10 (Голосів: 15)
   
Інші релізи
   Погані хлопці / Bad Boys (1995) 1080p 2xUkr/Eng | Sub Eng igor911  6 / 0   7.87 GB   2013-06-05 10:23 
dentaman 
Свій


З нами з: 10.04.09
Востаннє: 04.12.16
Повідомлень: 57

2010-05-09 12:52  
Збільшіть будь-ласка швидкість. Дякую
imlevchenko 
Свій


З нами з: 10.06.09
Востаннє: 19.11.16
Повідомлень: 80

2010-05-10 08:13  
dentaman написано:
Збільшіть будь-ласка швидкість. Дякую

Секунду Happy

dentaman 
Свій


З нами з: 10.04.09
Востаннє: 04.12.16
Повідомлень: 57

2010-05-11 11:19  
Дякую, вже завантажив
dj.zubna.pasta 
Свій


З нами з: 03.12.10
Востаннє: 14.07.16
Повідомлень: 98

2011-02-07 20:04  
Народ! Дайте швидкості будь-ласка... Залишилось 0,01 відсотка! Станьте на роздачу.
imlevchenko 
Свій


З нами з: 10.06.09
Востаннє: 19.11.16
Повідомлень: 80

2011-03-13 15:13  
Вернувся на роздачу. Хоч я і автор роздачі. але після повернення пише що співпадіння на 99,9%. Цих 0,01% довантажити нема в кого. Можу попробувати перезалити оригінальний торент файл, або створити новий. Але як це вплине на тих хто теж немає цього 0,01%. Чи не прийдеться їм заново перезавантажувати?
volodya327 
Новенький


З нами з: 20.11.09
Востаннє: 25.11.16
Повідомлень: 18

2011-03-13 23:39  
Я мусив перезалити сам *.torrent файл. Качалка побачила старий, швидко перевірила його, докачала 0,1% яі я вже теж роздаю.
Дякую imlevchenko !

Andick 
Модератор відео та координатор поширення


З нами з: 03.11.09
Востаннє: 06.12.16
Повідомлень: 1499

2011-03-14 12:07  
imlevchenko написано:
Погані хлопці / Bad Boys (1995) 720p
має бути
imlevchenko написано:
Погані хлопці / Bad Boys (1995) 720p Ukr/Eng
imlevchenko написано:
Якість:
720p
imlevchenko написано:
кодек:
та ну?
ну і можна нову кнопочку імдб покласти

Andick 
Модератор відео та координатор поширення


З нами з: 03.11.09
Востаннє: 06.12.16
Повідомлень: 1499

2011-03-14 20:35  
imlevchenko написано:

Відео:

кодек:
це ще уточніть, бо навряд
imlevchenko 
Свій


З нами з: 10.06.09
Востаннє: 19.11.16
Повідомлень: 80

2011-03-14 20:36  
Andick написано:

imlevchenko написано:
кодек:
та ну?

Пане Andick, що ви мали на увазі? (Нижче додаю інформацію з MediaInfo)
Назву та опис якості виправив.
До речі реліз на толоці вже майже рік (з кінця квітня), до тепер все було гаразд. Я лише перезалив торент-файл.
MediaInfo

General
Complete name : G:\Bad_Boys_1995.720p.HDTVRip_Hurtom.avi
Format : AVI
Format/Info : Audio Video Interleave
Format profile : OpenDML
File size : 4.36 GiB
Duration : 1h 57mn
Overall bit rate : 5 306 Kbps
Writing application : VirtualDubMod 1.5.10.2 (build 2540/release)
Writing library : VirtualDubMod build 2540/release

Video
ID : 0
Format : MPEG-4 Visual
Format profile : Advanced [email protected]
Format settings, BVOP : 1
Format settings, QPel : No
Format settings, GMC : No warppoints
Format settings, Matrix : Custom
Codec ID :
Codec ID/Hint :
Duration : 1h 57mn
Bit rate : 4 523 Kbps
Width : 1 280 pixels
Height : 720 pixels
Display aspect ratio : 16:9
Frame rate : 23.976 fps
Color space : YUV
Chroma subsampling : 4:2:0
Bit depth : 8 bits
Scan type : Progressive
Compression mode : Lossy
Bits/(Pixel*Frame) : 0.205
Stream size : 3.71 GiB (85%)
Writing library : 0039 build=2005.09.25 (UTC 2005-09-25)

Audio #1
ID : 1
Format : AC-3
Format/Info : Audio Coding 3
Mode extension : CM (complete main)
Codec ID : 2000
Duration : 1h 57mn
Bit rate mode : Constant
Bit rate : 384 Kbps
Channel(s) : 6 channels
Channel positions : Front: L C R, Side: L R, LFE
Sampling rate : 48.0 KHz
Bit depth : 16 bits
Compression mode : Lossy
Delay relative to video : 16ms
Stream size : 323 MiB (7%)
Alignment : Split accross interleaves
Interleave, duration : 42 ms (1.00 video frame)
Interleave, preload duration : 500 ms

Audio #2
ID : 2
Format : AC-3
Format/Info : Audio Coding 3
Mode extension : CM (complete main)
Codec ID : 2000
Duration : 1h 57mn
Bit rate mode : Constant
Bit rate : 384 Kbps
Channel(s) : 6 channels
Channel positions : Front: L C R, Side: L R, LFE
Sampling rate : 48.0 KHz
Bit depth : 16 bits
Compression mode : Lossy
Stream size : 323 MiB (7%)
Alignment : Split accross interleaves
Interleave, duration : 42 ms (1.00 video frame)
Interleave, preload duration : 500 ms

Andick 
Модератор відео та координатор поширення


З нами з: 03.11.09
Востаннє: 06.12.16
Повідомлень: 1499

2011-03-14 22:21  
imlevchenko
Коли торнт файл перезаливається він стає першим в дтальному пошуку, по якому я дивлюся що первіряти, видно попредній модратор ці помилки просто недогледів Happy
От тепер бачу що , дякую, перевірено Happy

leroykendall 
Модератор HD


З нами з: 03.01.11
Востаннє: 20.11.16
Повідомлень: 749

2011-07-04 10:55  
Поверніться будь-ласка хто-небудь на роздачу...
imlevchenko 
Свій


З нами з: 10.06.09
Востаннє: 19.11.16
Повідомлень: 80

2011-07-04 16:32  
leroykendall
Повернувся.

leroykendall 
Модератор HD


З нами з: 03.01.11
Востаннє: 20.11.16
Повідомлень: 749

2011-07-04 17:22  
imlevchenko написано:
Повернувся.

Дякую! Обіцяю декілька місяців повисіти на роздачі.

Mr.Aruy 
Новенький


З нами з: 05.01.11
Востаннє: 05.12.16
Повідомлень: 3

2011-09-19 09:05  
Встаньте на роздачу, будь ласка.
imlevchenko 
Свій


З нами з: 10.06.09
Востаннє: 19.11.16
Повідомлень: 80

2011-09-19 10:43  
Mr.Aruy
Вернувся на роздачу

vitasik77177 
Новенький


З нами з: 07.05.16
Востаннє: 04.12.16
Повідомлень: 2

2016-06-06 20:02  
дайте швидкість будь ласка.
Ваш часовий пояс: GMT + 2 Години

Нова тема   Відповісти