Завантажити та скачати торренти українською


Афера Томаса Крауна / The Thomas Crown Affair (1999) 720p Ukr/Eng | Sub Eng

Нові коментарі

Нова тема   Відповісти
Автор Повідомлення
Віктор 
Відео Гуртом - субтитрування
Відео Гуртом - субтитрування


З нами з: 09.01.10
Востаннє: 05.12.16
Повідомлень: 8663

2010-04-14 20:16  
Афера Томаса Крауна / The Thomas Crown Affair (1999) 720p Ukr/Eng | Sub Eng




«Crime does pay. Handsomely.»


Жанр: комедія, детектив, мелодрама
Країна: США



Кіностудія / кінокомпанія: MGM
Режисер: Джон МакТірнан (John McTiernan)
Композитор: Білл Конті (Bill Conti)
Актори: Пірс Броснан (Pierce Brosnan), Рене Руссо (Rene Russo), Деніс Лірі (Denis Leary), Бен Ґаззара (Ben Gazzara), Френкі Фейзон (Frankie Faison), Фріц Вівер (Fritz Weaver), Чарльз Кітінґ (Charles Keating), Марк Марґоліс (Mark Margolis), Фей Данавей (Faye Dunaway) та інші.

Сюжет:
Рімейк однойменного фільму 1968 року зі Стівом Макквіном і Фей Данавей у головних ролях. Мільярдер Томас Краун (Броснан), перенасичений фінансист, викрадає з великого музею картину Моне вартістю в 100 млн. доларів. Кетрін Бенінґ (Руссо) - слідчий страхової компанії, повинна спіймати його... Якщо Ви не бачили ориґінальної картини, то цю подивитеся з великою цікавістю - все більш сучасно, технологічно, і кінцівка закручена досить дотепно - адже режисер зняв такі бойовики, як «Міцний горішок» і «Хижак»
Цікаві факти

• В одному з пунктів контракту Пірса Броснана на отримання ролі Джеймса Бонда було написано, що актор не має права вдягати смокінг в рамках зйомок інших фільмів, які не стосуються бондіани. Як ми пам'ятаємо, в рамках «Афери» герой Броснана танцює на балу. Але, якщо уважно подивитися можна побачити, що верхній ґудзик сорочки розстібнутий, а білий метелик-краватка не зав'язана. Це зроблено спеціально для того, щоб актору не довелося платити величезну компенсацію. Формально, такий зовнішній вигляд не є парадним, а тому, технічно герой Пірса не в смокінгу.
• Фей Данавей, яка грає в картині психолога, грала роль детектива у фільмі-ориґіналі 1968 року.
• Одна з останніх сцен з великою кількістю чоловіків в капелюхах з чемоданами дуже схожа на сцену картини «Пограбування», в якій також брав участь Пірс Броснан. Хоча в тому фільмі чоловіки були вдягнені в гавайські сорочки і носили солом'яні капелюхи.
• Ця картина є першою з двох рімейків Джона МакТірана за мотивами ориґінальних фільмів режисера Нормана Джевісона. Другою картиною став «Роллербол».
• Деякі трюки у фільмі Пірс Броснан вирішив виконати сам, обійшовшись без допомоги професійних каскадерів.
• До зйомок у фільмі Пірс Броснан жодного разу в житті не грав у ґольф. Але два тижні підготовчих занять допомогли актору досить правдоподібно зіграти потрібну сцену.
• Звісно що, картини Моне, які використовували в процесі зйомок, були лише репродукціями. Вони були позичені із галереї Трубецького, яка знаходиться в Нью-Йорку.
• Коли глядачі вперше бачать на екрані спальню Томаса Крауна, на комоді з дзеркалом можна побачити чорно-білий знімок з автографом, на якому зображена відома топ-модель Сінді Кроуфорд.
• У фільмі поширюється думка про те, що страхові аґенти фотографують межі картин, які приховуються за рамками, щоб виключити імовірність підробки. Це пояснення дуже сумнівне. Жоден музей який цінує свою репутацію ніколи не сховає від очей відвідувачів навіть найменший шматочок таких відомих картин.
• Система протипожежної безпеки, яку показують у фільмі, дуже відрізняється від систем які дійсно використовують у справжніх музеях мистецтва.
• Рене Руссо вперше в своїй акторській кар'єрі зіграла в сцені в стилі ню.
• Годинник Томаса Крауна — Jaeger-Lecoultre Reverso, але логотип на годинникові роздивитися не можливо. Через спонсорську угоду актора з компанією Omega, яка виготовляє годинники. Угода була підписана в рамках отримання актором ролі аґента 007.
MediaInfo

Код:
General
Unique ID                        : 171059490752875996888838140614128013079 (0x80B0DC0B8D24F0B7A7F541F0BD4D8F17)
Complete name                    : D:\ 720p\The Thomas Crown Affair (1999) [Ukr, Eng] 720p [Hurtom].mkv
Format                           : Matroska
File size                        : 4.33 GiB
Duration                         : 1h 53mn
Overall bit rate                 : 5 471 Kbps
Movie name                       : The Thomas Crown Affair (1999) [Ukr, Eng] 720p [Hurtom]
Encoded date                     : UTC 2011-09-12 17:34:39
Writing application              : mkvmerge v4.7.0 ('Just Like You Imagined') зібрано Apr 21 2011 01:13:14
Writing library                  : libebml v1.2.0 + libmatroska v1.1.0

Video
ID                               : 1
Format                           : AVC
Format/Info                      : Advanced Video Codec
Format profile                   : [email protected]
Format settings, CABAC           : Yes
Format settings, ReFrames        : 8 frames
Codec ID                         : V_MPEG4/ISO/AVC
Duration                         : 1h 53mn
Bit rate                         : 4 000 Kbps
Width                            : 1 280 pixels
Height                           : 542 pixels
Display aspect ratio             : 2.35:1
Frame rate                       : 23.976 fps
Color space                      : YUV
Chroma subsampling               : 4:2:0
Bit depth                        : 8 bits
Scan type                        : Progressive
Bits/(Pixel*Frame)               : 0.240
Stream size                      : 3.08 GiB (71%)
Title                            : The Thomas Crown Affair (1999) [Ukr, Eng] 720p [Hurtom]
Writing library                  : core 88 r1471 1144615
Encoding settings                : cabac=1 / ref=8 / deblock=1:-3:-3 / analyse=0x3:0x113 / me=umh / subme=10 / psy=1 / psy_rd=1.00:0.00 / mixed_ref=1 / me_range=64 / chroma_me=1 / trellis=2 / 8x8dct=1 / cqm=0 / deadzone=21,11 / fast_pskip=0 / chroma_qp_offset=-2 / threads=6 / sliced_threads=0 / nr=0 / decimate=0 / mbaff=0 / constrained_intra=0 / bframes=6 / b_pyramid=2 / b_adapt=2 / b_bias=0 / direct=3 / wpredb=1 / wpredp=2 / keyint=250 / keyint_min=25 / scenecut=40 / intra_refresh=0 / rc=2pass / mbtree=0 / bitrate=4000 / ratetol=1.0 / qcomp=0.60 / qpmin=10 / qpmax=51 / qpstep=4 / cplxblur=20.0 / qblur=0.5 / ip_ratio=1.40 / pb_ratio=1.30 / aq=1:0.80
Language                         : English

Audio #1
ID                               : 2
Format                           : AC-3
Format/Info                      : Audio Coding 3
Mode extension                   : CM (complete main)
Codec ID                         : A_AC3
Duration                         : 1h 53mn
Bit rate mode                    : Constant
Bit rate                         : 640 Kbps
Channel(s)                       : 6 channels
Channel positions                : Front: L C R, Side: L R, LFE
Sampling rate                    : 48.0 KHz
Bit depth                        : 16 bits
Compression mode                 : Lossy
Stream size                      : 519 MiB (12%)
Title                            : 5.1 448 kbps - багатоголосий закадровий | Так Треба Продакшн
Language                         : Ukrainian

Audio #2
ID                               : 3
Format                           : AC-3
Format/Info                      : Audio Coding 3
Mode extension                   : CM (complete main)
Codec ID                         : A_AC3
Duration                         : 1h 53mn
Bit rate mode                    : Constant
Bit rate                         : 192 Kbps
Channel(s)                       : 2 channels
Channel positions                : Front: L R
Sampling rate                    : 48.0 KHz
Bit depth                        : 16 bits
Compression mode                 : Lossy
Stream size                      : 156 MiB (4%)
Title                            : 2.0 192 kbps - багатоголосий закадровий | Так Треба Продакшн
Language                         : Ukrainian

Audio #3
ID                               : 4
Format                           : AC-3
Format/Info                      : Audio Coding 3
Mode extension                   : CM (complete main)
Codec ID                         : A_AC3
Duration                         : 1h 53mn
Bit rate mode                    : Constant
Bit rate                         : 640 Kbps
Channel(s)                       : 6 channels
Channel positions                : Front: L C R, Side: L R, LFE
Sampling rate                    : 48.0 KHz
Bit depth                        : 16 bits
Compression mode                 : Lossy
Stream size                      : 519 MiB (12%)
Language                         : English

Text
ID                               : 5
Format                           : UTF-8
Codec ID                         : S_TEXT/UTF8
Codec ID/Info                    : UTF-8 Plain Text
Language                         : English

Menu
00:00:00.000                     : en:00:00:00.000
00:04:43.115                     : en:00:04:43.115
00:07:49.927                     : en:00:07:49.927
00:08:50.111                     : en:00:08:50.111
00:10:42.850                     : en:00:10:42.850
00:14:04.426                     : en:00:14:04.426
00:15:55.412                     : en:00:15:55.412
00:18:41.744                     : en:00:18:41.744
00:19:53.858                     : en:00:19:53.858
00:22:49.159                     : en:00:22:49.159
00:24:49.445                     : en:00:24:49.445
00:27:00.743                     : en:00:27:00.743
00:29:19.798                     : en:00:29:19.798
00:31:18.500                     : en:00:31:18.500
00:33:09.487                     : en:00:33:09.487
00:36:28.393                     : en:00:36:28.393
00:38:41.902                     : en:00:38:41.902
00:41:35.367                     : en:00:41:35.367
00:43:10.628                     : en:00:43:10.628
00:44:29.958                     : en:00:44:29.958
00:49:51.487                     : en:00:49:51.487
00:52:52.335                     : en:00:52:52.335
00:55:47.092                     : en:00:55:47.092
00:57:08.800                     : en:00:57:08.800
01:00:20.867                     : en:01:00:20.867
01:04:54.431                     : en:01:04:54.431
01:06:58.556                     : en:01:06:58.556
01:10:20.423                     : en:01:10:20.423
01:13:40.039                     : en:01:13:40.039
01:15:39.576                     : en:01:15:39.576
01:22:20.769                     : en:01:22:20.769
01:28:21.753                     : en:01:28:21.753
01:32:35.841                     : en:01:32:35.841
01:38:21.686                     : en:01:38:21.686
01:43:19.234                     : en:01:43:19.234
01:47:45.500                     : en:01:47:45.500
Всі наявні релізи

Завантажити:
720p Ukr/Eng | Sub Eng (3.82 GB) - багатоголосий закадровий Так Треба Продакшн на замовлення телеканалу Інтер
Ukr/Eng (1.35 GB) - багатоголосий закадровий Так Треба Продакшн на замовлення телеканалу Інтер

Ролі озвучили: Пірс Броснан/Томас Краун - Олег Стальчук, Бен Ґаззара - Юрій Гребельник
Тривалість: 01:53:17
Якість: 720p (HiDt)
Відео:
кодек:
розмір кадру: 1280x542
бітрейт: 4000 кб/с

Аудіо # 1:
мова: українська
переклад: багатоголосий закадровий Так Треба Продакшн на замовлення телеканалу Інтер
кодек: 5.1
бітрейт: 640 кб/с

Аудіо # 2:
мова: українська
переклад: багатоголосий закадровий Так Треба Продакшн на замовлення телеканалу Інтер
кодек: 2.0
бітрейт: 192 кб/с

Аудіо # 3:
мова: англійська
переклад: оригінал
кодек: 5.1
бітрейт: 640 кб/с

Субтитри :
мова: англійська
тип: програмні (м'які)
формат: *.srt

Скріншоти :



За створення доріжки 5.1 подяка Lan-y
За українізацію постера подяка bilenkuyboy


Джерело: &
Особиста оцінка: 10 - без зайвих вагань рекомендую всім!


Срібний реліз (на рейтинг впливає 50% завантаженого)
 Трекер:    Зареєстрований   

Завантажити / скачати фільм українською



відео для новачків



 Зареєстрований:   2011-09-12 19:51
 Розмір:   4.33 GB 
 Оцінка фільму:   9.2/10 (Голосів: 20)
   
Інші релізи
Віктор 
Відео Гуртом - субтитрування
Відео Гуртом - субтитрування


З нами з: 09.01.10
Востаннє: 05.12.16
Повідомлень: 8663

2010-04-22 11:48  
Роздавати не буду поки не перевірять.
DiGen 
Модератор HD та координатор Команди HD
Модератор HD та координатор Команди HD


З нами з: 12.11.09
Востаннє: 24.06.13
Повідомлень: 1452

2010-04-22 19:49  
Фільм чудовий, цікавий.
А думаю позолотити навіть можна - розмір невеликий, в описі помилок я не знайшов, бітрейт відео пристойний, жаль що УКР. доріжка лише 192.
Напевне треба буде трішки почекати (так як я з зачарованою Happy )

Віктор 
Відео Гуртом - субтитрування
Відео Гуртом - субтитрування


З нами з: 09.01.10
Востаннє: 05.12.16
Повідомлень: 8663

2010-04-23 17:39  
Шановні модератори, не були б ви так ласкаві, перевірити цей реліз. Я розумію що у вас багато справ і все ж, чекаю другий день.

weber написано:
w2958l, взагаліто 0day а не Oday


weber, тепер знатиму. Хоча спершу хотів прописати 0day, але мабуть не туди натиснув Sad (1) а потім забув.

weber 
Почесний гуртомівець


З нами з: 03.08.08
Востаннє: 02.12.16
Повідомлень: 7003

2010-04-23 23:30  
w2958l, взагаліто 0day а не Oday
Віктор 
Відео Гуртом - субтитрування
Відео Гуртом - субтитрування


З нами з: 09.01.10
Востаннє: 05.12.16
Повідомлень: 8663

2010-04-29 16:52  
Оце так, тиждень лежав реліз, лише три людини завантажило. Виклав на головну і такий попит.
Головна рулить. Happy Усім приємного перегляду!

ant-y94 
Частий відвідувач


З нами з: 11.04.10
Востаннє: 27.11.16
Повідомлень: 37

2010-06-14 10:23  
Має бути щось цікаве... подивлюсь!
Lan 
Відео Гуртом - фільмокрай
Відео Гуртом - фільмокрай


З нами з: 19.09.09
Востаннє: 05.12.16
Повідомлень: 625

2010-08-10 14:52  
На основі наявної української доріжки 2.0 зробив українську доріжку 5.1:
The Thomas Crown Affair (1999) [Ukr 5.1 @ 640 kbps].Ukr. (518,6 Мб)
Характеристики файлу:
Цитата:
General
Complete name : E:\Sound ways\The Thomas Crown Affair (1999) [Ukr 5.1 @ 640 kbps].Ukr.
Format : AC-3
Format/Info : Audio Coding 3
File size : 519 MiB
Duration : 1h 53mn
Overall bit rate : 640 Kbps

Audio
Format : AC-3
Format/Info : Audio Coding 3
Mode extension : CM (complete main)
Duration : 1h 53mn
Bit rate mode : Constant
Bit rate : 640 Kbps
Channel(s) : 6 channels
Channel positions : Front: L C R, Side: L R, LFE
Sampling rate : 48.0 KHz
Bit depth : 16 bits
Compression mode : Lossy
Stream size : 519 MiB (100%)


Велике прохання усім бажаючим завантажувати нову доріжку! А якщо є можливість - то і викласти її на Гуртом і долучити до інших доріжок.

Віктор 
Відео Гуртом - субтитрування
Відео Гуртом - субтитрування


З нами з: 09.01.10
Востаннє: 05.12.16
Повідомлень: 8663

2010-10-16 12:51  
Lan написано:
На основі наявної української доріжки 2.0 зробив українську доріжку 5.1:

Це звісно чудово, але нащо було робити 640 Kbps вистачило б і 384 - 448.

Lan 
Відео Гуртом - фільмокрай
Відео Гуртом - фільмокрай


З нами з: 19.09.09
Востаннє: 05.12.16
Повідомлень: 625

2010-10-17 20:28  
Якщо вже робити, то чому б не з таким бітрейтом, як і в оригіналу?
Щоб задавали питання - "а чому не як в оригіналу"?
P.S.: тим більше, що доріжка з файлообмінника видалена, оскільки нікому виявилася непотрібною.
P.P.S.: а чому ви з самого початку не зробили 5.1?

Віктор 
Відео Гуртом - субтитрування
Відео Гуртом - субтитрування


З нами з: 09.01.10
Востаннє: 05.12.16
Повідомлень: 8663

2010-10-17 20:47  
Lan написано:

Якщо вже робити, то чому б не з таким бітрейтом, як і в оригіналу?
Щоб задавали питання - "а чому не як в оригіналу"?
P.S.: тим більше, що доріжка з файлообмінника видалена, оскільки нікому виявилася непотрібною.
P.P.S.: а чому ви з самого початку не зробили 5.1?


Оригінальна була ) я перекодував в ас3. Для звуку записаного з телебачення з головою вистачить бітрейту 384 - 448, це якби були чисті голоси інша справа можна і дтс зібрати)
Я завантажив такий ріп і в ньому була укр.доріжка 2.0 / 192 кб/с.

VIKTORCV1 
Новенький


З нами з: 03.09.09
Востаннє: 28.09.16
Повідомлень: 5

2010-11-04 22:47  
СПАСИБІ
Lan 
Відео Гуртом - фільмокрай
Відео Гуртом - фільмокрай


З нами з: 19.09.09
Востаннє: 05.12.16
Повідомлень: 625

2010-12-30 00:41  
Перезавантажив на файлообмінник доріжку 5.1:
The Thomas Crown Affair (1999) [Ukr 5.1 @ 640 kbps].Ukr.
Якщо замінити нею наявну 2.0, реліз вміщується на DVD5.

imonko 
Відео Гуртом - фільмокрай
Відео Гуртом - фільмокрай


З нами з: 20.07.08
Востаннє: 31.10.16
Повідомлень: 7309

2010-12-30 18:20  
Lan написано:

Перезавантажив на файлообмінник доріжку 5.1:

The Thomas Crown Affair (1999) [Ukr 5.1 @ 640 kbps].Ukr.

залив дану доріжку на фтп

Віктор 
Відео Гуртом - субтитрування
Відео Гуртом - субтитрування


З нами з: 09.01.10
Востаннє: 05.12.16
Повідомлень: 8663

2011-09-12 19:53  
ТОРРЕНТ ОНОВЛЕНО! ДОДАНО УКРАЇНСЬКУ ДОРІЖКУ 5.1.
ПЕРЕЗАВАНТАЖТЕ ТОРРЕНТ.

bilenkuyboy 
Відео Гуртом - дизайнер
Відео Гуртом - дизайнер


З нами з: 17.06.08
Востаннє: 27.11.16
Повідомлень: 1582

2011-09-12 20:07  
w2958l
перезалий скріншоти!

Віктор 
Відео Гуртом - субтитрування
Відео Гуртом - субтитрування


З нами з: 09.01.10
Востаннє: 05.12.16
Повідомлень: 8663

2011-09-12 21:01  
bilenkuyboy написано:
перезалий скріншоти!


Фотки.ком зараз не працює!

Andick 
Модератор відео та координатор поширення


З нами з: 03.11.09
Востаннє: 03.12.16
Повідомлень: 1499

2011-09-13 13:09  
w2958l написано:
Фотки.ком зараз не працює!
на фотки взагаліто заборонено заливати, тому прийдеться перезаливати ще кудись, крім радикалу, туди теж не можна Happy
Віктор 
Відео Гуртом - субтитрування
Відео Гуртом - субтитрування


З нами з: 09.01.10
Востаннє: 05.12.16
Повідомлень: 8663

2011-09-13 14:55  
Andick написано:
на фотки взагаліто заборонено заливати, тому прийдеться перезаливати ще кудись, крім радикалу, туди теж не можна Happy


У мене на фотках.ком усе- від скріншотів і постерів, до фотографій акторів, тому переносити немає сенсу. І стосовно заборони, її впровадили тому що там видаляли скріншоти, які викладали тут, і на інших сайтах оригінального розміру, а мініатюри чи прев'юшки на fotky.com навіть їхні модератори писали, що можна викладати, тому не бачу проблем. І найголовніше fotky.com україномовний хостинг і зручний.

DеLight 
Відео Гуртом - фільмокрай
Відео Гуртом - фільмокрай


З нами з: 24.08.11
Востаннє: 17.11.16
Повідомлень: 664

2011-09-21 20:38  
Інригуючий фільм і кінцівка класна. Переглянув із задоволенням.
Ваш часовий пояс: GMT + 2 Години

Нова тема   Відповісти