Завантажити та скачати торренти українською


MRK - Звезда с небес (2007) [FLAC] | Rock / Alternative

Нові коментарі

Нова тема   Відповісти
Останній раз роздавалося MajorXXXX (2011-11-17)
Автор Повідомлення
a_av 
Новенький


З нами з: 05.04.10
Востаннє: 27.11.16
Повідомлень: 11

2010-04-08 20:52  
MRK - Звезда с небес (2007) [FLAC] | Rock / Alternative



Стиль: Alternative
Країна, місто: Україна, Київ
Видавець: "ВІККОН ПЛЮС" ТОВ
Виконавці:
Дмитро Муравицький (вокал, гітара)
Петро Цимбал (бас)
Ігор Маляр (гітара)
Олександр Десятниченко (вокал, барабани)
Пісні:
    01 - Звезда С Небес
    02 - Мы Идем
    03 - Я Скучаю По Тебе
    04 - Прямо В Сердце
    05 - Тонкая Нить
    06 - Неудовлетворен
    07 - Бой (Boy)
    08 - Сердитый Сперматозоид
    09 - Старые Слова
    10 - История
    11 - Born To Stay Alive
    12 - Child Is My Name
    13 - The Falling Star

Тривалість: 00:49:42
Мова: російська
Аудіо-кодек: FLAC
Бітрейт: 974-1094 кбіт/с
Джерело: Власний диск
Додаткова інформація

MRK - сольний проект Муріка - соліста гурту Грін Грей.

Ось уже років 15 Дмитро "Мурік" Муравицький відомий в якості вокаліста гурту Green Grey – але гурт останнім часом не вчащає з новинами. Тож цілком закономірно, що його учасники, маючи вільний час, витрачають його на сольні проекти. Власне, MRK і є таким проектом Дмитра Муравицького. Що тут скажеш? Звичка до якості є далеко не у всіх музикантів, що мають великий досвід – не завжди кількість переходить у якість. Але MRK таку звичку явно має – тому Ви почуєте якісну альтернативну поп-музику. Це значить, що тут намішано потроху від року, хіп-хопу, фанку, диско і ще з півдюжини стилів – але все це подано легко, ненав’язливо, впевнено і переконливо. Жодних зайвих сиропів, на щастя. Незалежно від того, жарт звучить чи серйозна пісня – обов’язково відчуваєш, що все зроблено професійно. Власне, цей альбом підштовхує до простої думки: навіть якщо Green Grey таки не матиме продовження, MRK стане йому цікавою, достойною і заміною, і альтернативою.
Всі пісні - російською.
Звіт EAC

Exact Audio Copy V0.99 prebeta 5 from 4. May 2009

EAC extraction logfile from 8. April 2010, 21:33

- / -

Used drive : _NEC DVD_RW ND-2510A Adapter: 1 ID: 0

Read mode : Secure
Utilize accurate stream : Yes
Defeat audio cache : Yes
Make use of C2 pointers : No

Read offset correction : 48
Overread into Lead-In and Lead-Out : No
Fill up missing offset samples with silence : Yes
Delete leading and trailing silent blocks : No
Null samples used in CRC calculations : Yes
Used interface : Native Win32 interface for Win NT & 2000

Used output format : Internal WAV Routines
Sample format : 44.100 Hz; 16 Bit; Stereo

TOC of the extracted CD

Track | Start | Length | Start sector | End sector
---------------------------------------------------------
1 | 0:00.00 | 3:52.64 | 0 | 17463
2 | 3:52.64 | 3:37.69 | 17464 | 33807
3 | 7:30.58 | 4:37.59 | 33808 | 54641
4 | 12:08.42 | 4:12.73 | 54642 | 73614
5 | 16:21.40 | 3:33.61 | 73615 | 89650
6 | 19:55.26 | 4:02.70 | 89651 | 107870
7 | 23:58.21 | 3:24.67 | 107871 | 123237
8 | 27:23.13 | 3:48.42 | 123238 | 140379
9 | 31:11.55 | 2:42.66 | 140380 | 152595
10 | 33:54.46 | 4:31.36 | 152596 | 172956
11 | 38:26.07 | 3:56.72 | 172957 | 190728
12 | 42:23.04 | 3:29.38 | 190729 | 206441
13 | 45:52.42 | 3:50.07 | 206442 | 223698

Range status and errors

Selected range

Filename C:\Users\Leha\Desktop\111\CDImage.wav

Peak level 100.0 %
Range quality 100.0 %
Copy CRC 8E8DE9EC
Copy OK

No errors occurred

End of status report


16.04.2010 Торрент змінено у зв'язку з додаванням до роздачі обкладинок диску. Прохання до всіх, хто вже завантажив матеріал перезавантажити торрент.


Якщо Ви справді бажаєте підтримати українське - після прослуховування, якщо музика вам сподобалась, придбайте ліцензійний диск. Підтримаймо вітчизняних виконавців!


Срібний реліз (на рейтинг впливає 50% завантаженого)
 Трекер:    Зареєстрований   

Завантажити / скачати українську музику



відео для новачків



 Зареєстрований:   2010-04-16 18:20
 Розмір:   362 MB 
 Оцінка музики:   10/10 (Голосів: 2)
   
Skiff 
музика
музика


З нами з: 12.11.07
Востаннє: 02.12.16
Повідомлень: 3051

2010-04-08 21:19  
Додаткову інформацію слід перекласти українською.
Лузлес лузлесом, але бітрейт флека тут вказують.

Algofol 
Новенький


З нами з: 19.10.09
Востаннє: 02.10.16
Повідомлень: 1

2010-12-14 23:46  
роздайте
Ваш часовий пояс: GMT + 2 Години

Нова тема   Відповісти