Завантажити та скачати торренти українською


The Вйо - Ganja (2008) [FLAC] | Reggae

Нові коментарі

Нова тема   Відповісти
Автор Повідомлення
a_av 
Новенький


З нами з: 05.04.10
Востаннє: 04.12.16
Повідомлень: 11

2010-04-08 20:14  
The Вйо - Ganja (2008) [FLAC] | Reggae



Стиль: Reggae
Країна, місто: Україна, Полтавська область, Кобеляки
Сайти: Офіційний сайт
Видавець: ІНШАМУЗИКА, ЯОК music
Виконавці:
Мирослав Кувалдін — спів
Сергій Підкаура — гітара
Ілля Клімов — клавішні, секвенція
Сергій Чегодаєв — бас
Пісні:
    1. ганжа
    2. танцюй з нами
    3. благополюшно
    4. кохана моя
    5. дансові манси
    6. пийте горілку
    7. справа майстра бо
    8. ганга
    9. не кажи вйо
    10. у гаю
    11. голоси
    12. різдвяна (тук-тук-тук)
    13. бджола
    14. космішна
    15. зорі
    16. мануна
    17. ганжа (ріалтон)
    18. каляки-маляки (Полтавщині)
    Бонус video:
    Зорі

    Тривалість: 04:19
    Відео:
    кодек:
    розмір кадру: 320x240
    бітрейт: 964 кб/с

    Аудіо:
    мова: українська
    кодек: MPEG-1 Layer3
    бітрейт: 184 кб/с
    Скріншоти:

    Ганга

    Тривалість: 04:41
    Відео:
    кодек:
    розмір кадру: 320x240
    бітрейт: 966 кб/с

    Аудіо:
    мова: українська
    кодек: MPEG-1 Layer3
    бітрейт: 185 кб/с
    Скріншоти:


Тривалість: 01:09:01
Мова: українська
Аудіо-кодек: FLAC
Бітрейт: 434-980 кб/с
Джерело: Власний диск
Додаткова інформація

Точкою відліку стилю реггі в Україні можна вважати утворення гурту The ВЙО в м. Кобеляки, Полтавської обл. у 1991 році. Основу команди склали гітарист Сергій Підкаура і співак Мирослав Кувалдін. Протягом 10-річного існування гурту музиканти періодично розходилися, сходилися, до них приєднувались інші учасники. В 1995 році The ВЙО стали лауреатом „Червоної рути” із задиркуватою піснею „Ганжа”.

Пік популярності їх музики припав на часи співробітництва з мистецькою агенцією „Територія А” і ротації кліпів у однойменному хіт-параді. Споглядаючи колоритну зовнішність Мирослава, глядачі не могли повірити, що хлопець народився в східній Україні і „так добре розмовляє по-нашому” від народження. Саме в ті часи пісня Зорі ("Кожен з нас щось може...") стала маніфестом українських растафарі.
...але в 2000-му році гурт оголошує про припинення свого існування. Сергій Підкаура, як автор, співпрацює з провідними українськими музикантами (О. Пономарьов, Н.Могілевська), Мирослав Кувалдін розпочинає кар'єру телеведучого (канал М1) і записує сольний альбом "Зеркало Мира"...
...і ось після 8-річної перерви, аби задовільнити тягу меломанів до ностальгічних переживань, музиканти гурту The ВЙО вирішили відновити свою концертну діяльність, про що було оголошено влітку цього року, на фестивалі аматорського мистецтва "Вйо, Кобеляки" (www.viofest.at.ua). Також, було прийняте рішення про видання диску Ganja.
Звіт EAC

Exact Audio Copy V0.99 prebeta 5 from 4. May 2009

EAC extraction logfile from 10. April 2010, 22:13

The Вйо / Ganja

Used drive : _NEC DVD_RW ND-2510A Adapter: 1 ID: 0

Read mode : Secure
Utilize accurate stream : Yes
Defeat audio cache : Yes
Make use of C2 pointers : No

Read offset correction : 48
Overread into Lead-In and Lead-Out : No
Fill up missing offset samples with silence : Yes
Delete leading and trailing silent blocks : No
Null samples used in CRC calculations : Yes
Used interface : Native Win32 interface for Win NT & 2000

Used output format : Internal WAV Routines
Sample format : 44.100 Hz; 16 Bit; Stereo

TOC of the extracted CD

Track | Start | Length | Start sector | End sector
---------------------------------------------------------
1 | 0:00.00 | 3:36.24 | 0 | 16223
2 | 3:36.24 | 4:33.49 | 16224 | 36747
3 | 8:09.73 | 3:42.38 | 36748 | 53435
4 | 11:52.36 | 3:09.60 | 53436 | 67670
5 | 15:02.21 | 3:18.24 | 67671 | 82544
6 | 18:20.45 | 3:56.25 | 82545 | 100269
7 | 22:16.70 | 5:01.34 | 100270 | 122878
8 | 27:18.29 | 4:46.50 | 122879 | 144378
9 | 32:05.04 | 3:50.00 | 144379 | 161628
10 | 35:55.04 | 3:32.57 | 161629 | 177585
11 | 39:27.61 | 4:22.57 | 177586 | 197292
12 | 43:50.43 | 3:17.38 | 197293 | 212105
13 | 47:08.06 | 4:15.19 | 212106 | 231249
14 | 51:23.25 | 4:30.60 | 231250 | 251559
15 | 55:54.10 | 4:11.61 | 251560 | 270445
16 | 60:05.71 | 4:50.29 | 270446 | 292224
17 | 64:56.25 | 0:41.10 | 292225 | 295309
18 | 65:37.35 | 3:23.26 | 295310 | 310560
19 | 71:32.61 | 7:09.13 | 321961 | 354148

Range status and errors

Selected range

Filename C:\The Вйо - Ganja.wav

Peak level 98.8 %
Range quality 99.9 %
Copy CRC 42E20543
Copy OK

No errors occurred

End of status report


10.04.2010 Торрент змінено у зв'язку з придбанням мною офіційного диску. В роздачу також додано 2а відеокліпа, які присутні на диску.

11.04.2010 Торрент змінено у зв'язку з додаванням до роздачі обкладинок диску. Прохання до всіх, хто вже завантажив матеріал перезавантажити торрент.


Якщо Ви справді бажаєте підтримати українське - після прослуховування, якщо музика вам сподобалась, придбайте ліцензійний диск. Підтримаймо вітчизняних виконавців!


Срібний реліз (на рейтинг впливає 50% завантаженого)
 Трекер:    Зареєстрований   

Завантажити / скачати українську музику



відео для новачків



 Зареєстрований:   2010-04-11 22:03
 Розмір:   391 MB 
 Оцінка музики:   9.9/10 (Голосів: 20)
   
plyrvt 
VIP


З нами з: 03.12.08
Востаннє: 03.12.16
Повідомлень: 398

2010-04-08 20:36  
негоже викладати реліз без назв треків і виконавця
PERFORMER "Невідомий виконавець"
TITLE "Невідома назва"
FILE "The Vjo - Ganja.ape" WAVE
TRACK 01 AUDIO
TITLE "Track01"
PERFORMER "Невідомий виконавець"
FLAGS DCP
INDEX 01 00:00:00

a_av 
Новенький


З нами з: 05.04.10
Востаннє: 04.12.16
Повідомлень: 11

2010-04-08 20:54  
Перероблю, але завтра
ssTAss 
Модератор музики


З нами з: 05.07.08
Востаннє: 06.12.16
Повідомлень: 10946

2010-04-08 21:39  
a_av написано:
Видавець: немає даних

інфу можна звідси взяти
і питання, перевіряли аудіочекером? ресурс просто не зовсім довіру викликає..

plyrvt 
VIP


З нами з: 03.12.08
Востаннє: 03.12.16
Повідомлень: 398

2010-04-08 21:57  
CUE
REM GENRE Reggae
REM DATE 2008
REM DISCID 1B127113
REM COMMENT "ExactAudioCopy v0.95b4"
PERFORMER "The Вйо"
TITLE "Ganja"
FILE "The Vjo - Ganja.ape" WAVE
TRACK 01 AUDIO
TITLE "Ганжа"
INDEX 01 00:00:00
TRACK 02 AUDIO
TITLE "Танцюй з нами"
INDEX 00 03:34:24
INDEX 01 03:36:24
TRACK 03 AUDIO
TITLE "Благополюшно"
INDEX 00 08:07:73
INDEX 01 08:09:73
TRACK 04 AUDIO
TITLE "Кохана моя"
INDEX 00 11:50:36
INDEX 01 11:52:36
TRACK 05 AUDIO
TITLE "Дансові манси"
INDEX 00 15:00:21
INDEX 01 15:02:21
TRACK 06 AUDIO
TITLE "Пийте горілку"
INDEX 00 18:18:45
INDEX 01 18:20:45
TRACK 07 AUDIO
TITLE "Справа майстра бо"
INDEX 00 22:14:70
INDEX 01 22:16:70
TRACK 08 AUDIO
TITLE "Ганга"
INDEX 00 27:16:29
INDEX 01 27:18:29
TRACK 09 AUDIO
TITLE "Не кажи вйо"
INDEX 00 32:03:04
INDEX 01 32:05:04
TRACK 10 AUDIO
TITLE "У гаю"
INDEX 00 35:53:04
INDEX 01 35:55:04
TRACK 11 AUDIO
TITLE "Голоси"
INDEX 00 39:25:61
INDEX 01 39:27:61
TRACK 12 AUDIO
TITLE "Різдвяна (тук-тук-тук)"
INDEX 00 43:48:43
INDEX 01 43:50:43
TRACK 13 AUDIO
TITLE "Бджола"
INDEX 00 47:06:06
INDEX 01 47:08:06
TRACK 14 AUDIO
TITLE "Космішна"
INDEX 00 51:21:25
INDEX 01 51:23:25
TRACK 15 AUDIO
TITLE "Зорі"
INDEX 00 55:52:10
INDEX 01 55:54:10
TRACK 16 AUDIO
TITLE "Мануна"
INDEX 00 60:03:71
INDEX 01 60:05:71
TRACK 17 AUDIO
TITLE "Ганжа (ріалтон)"
INDEX 00 64:54:25
INDEX 01 64:56:25
TRACK 18 AUDIO
TITLE "Каляки-маляки (Полтавщині)"
INDEX 00 65:35:35
INDEX 01 65:37:35
Audiochecker Log
AUDIOCHECKER v2.0 beta (build 457) - by Dester - [email protected]
~~~~~~~~~~~~~~~~~~~~~~~~~~~~~~~~~~
-=== DO NOT EDIT THIS FILE! ===-

Path: ...\2008 - Ganja

01 -=- 01 - Ганжа.wav -=- CDDA (99%)
02 -=- 02 - Танцюй з нами.wav -=- CDDA (100%)
03 -=- 03 - Благополюшно.wav -=- CDDA (100%)
04 -=- 04 - Кохана моя.wav -=- CDDA (100%)
05 -=- 05 - Дансові манси.wav -=- CDDA (100%)
06 -=- 06 - Пийте горілку.wav -=- CDDA (100%)
07 -=- 07 - Справа майстра бо.wav -=- CDDA (99%)
08 -=- 08 - Ганга.wav -=- CDDA (100%)
09 -=- 09 - Не кажи вйо.wav -=- MPEG (93%)
10 -=- 10 - У гаю.wav -=- MPEG (79%)
11 -=- 11 - Голоси.wav -=- MPEG (95%)
12 -=- 12 - Різдвяна (тук-тук-тук).wav -=- MPEG (95%)
13 -=- 13 - Бджола.wav -=- CDDA (100%)
14 -=- 14 - Космішна.wav -=- MPEG (95%)
15 -=- 15 - Зорі.wav -=- MPEG (95%)
16 -=- 16 - Мануна.wav -=- MPEG (95%)
17 -=- 17 - Ганжа (ріалтон).wav -=- MPEG (89%)
18 -=- 18 - Каляки-маляки (Полтавщині).wav -=- CDDA (100%)

Summary 59,00% CDDA

203704404
Треки помічені як MPEG справді по спектрам виглядають як типові MP3 (але всі по різному, в когось обмеження з 15 кГц, в когось з 18 кГц, десь є завал вище 4 кГц),

a_av 
Новенький


З нами з: 05.04.10
Востаннє: 04.12.16
Повідомлень: 11

2010-04-09 08:20  
Я підозрюю, що в 90-х альбом вийшов лише на касеті, а зараз його перевидали на СД, але зі звуком нічого не робили.
ssTAss 
Модератор музики


З нами з: 05.07.08
Востаннє: 06.12.16
Повідомлень: 10946

2010-04-09 18:07  
хмм... ну не знаю що робити
тра чекати поки не знайдеться хтось з оригінальним диском (до речі, туди ще входили два кліпи) і не підтвердить інфу про
a_av написано:
перевидали на СД, але зі звуком нічого не робили

поки "маємо що маємо"))

plyrvt 
VIP


З нами з: 03.12.08
Востаннє: 03.12.16
Повідомлень: 398

2010-04-09 19:36  
Цитата:
раніше ці пісні на дисках не видавалися. Більше того, десь половина з представлених тут пісень не видавалася взагалі – вони вважалися безнадійно загубленими, і лише дивом вдалося їх знайти і реставрувати. Власне кажучи, реставрації піддалися всі пісні альбому – бо запис їхній відбувся ще у 1995-98 роках. От такий раритетний дебютник

http://www.umka.com.ua/ukr/catalogue/reggae/the-vyo-ganja.html

Думаю що оці MPEG якраз і є ці реставровані раритети.

ua2004 
Відео Гуртом - фільмокрай
Відео Гуртом - фільмокрай


З нами з: 31.01.08
Востаннє: 04.12.16
Повідомлень: 3128

2010-04-09 21:43  
a_av написано:
1. ганжа

Далі натискав педалі...
Кожен з нас щось може, ганджа допоможе...

Легендарна пісня Wide grin

Swirl 
Оцифрування книг Гуртом
Оцифрування книг Гуртом


З нами з: 12.10.09
Востаннє: 24.02.15
Повідомлень: 495

2010-04-09 21:45  
То Зорі, а не Ганжа)
plyrvt 
VIP


З нами з: 03.12.08
Востаннє: 03.12.16
Повідомлень: 398

2010-04-09 21:52  
Згадує, як на фестивалі ”Червона рута-95” гурт ”The ВЙО” вперше заспівав пісню

— Я починав пісню зі слів ”Ганжа милка, Ганжа душка, Ганжа мягка як подушка”, — сміється. — Усе журі врубалося, що це ім’я жінки. Лише одна жінка, що прожила кілька років у Америці, сиділа, втиснувшись у крісло і дивувалася: яка у вас демократична країна!

a_av 
Новенький


З нами з: 05.04.10
Востаннє: 04.12.16
Повідомлень: 11

2010-04-10 20:44  
Я придбав сьогодні офіційний диск, зроблю ріп, викладу та розтавимо всі крапки над "і" ))
ua2004 
Відео Гуртом - фільмокрай
Відео Гуртом - фільмокрай


З нами з: 31.01.08
Востаннє: 04.12.16
Повідомлень: 3128

2010-04-11 06:34  
Swirl написано:
То Зорі, а не Ганжа)

Ти правий. Але в "Зорях" теж про ганджу співають Happy
До речі, я не можу набрати тут 5-ту літеру укр. абетки (яка одразу після г і перед д). Настикаю Alt+Г, а друкує [ u ] [ / u ]

Swirl 
Оцифрування книг Гуртом
Оцифрування книг Гуртом


З нами з: 12.10.09
Востаннє: 24.02.15
Повідомлень: 495

2010-04-11 08:14  
Я мав на увазі що то слова з пісні "Зорі".
Певно неправильно зрозуміли один одного.
Цитата:
не можу набрати тут 5-ту літеру укр. абетки

У мене нормально, правда для "Ґ" окрема кнопка на клавіатурі))

ssTAss 
Модератор музики


З нами з: 05.07.08
Востаннє: 06.12.16
Повідомлень: 10946

2010-04-11 15:44  
a_av написано:
В роздачу також додано 2а відеокліпа, які присутні на диску.

потрібно вказати тех. дані відео

Ваш часовий пояс: GMT + 2 Години

Нова тема   Відповісти