Завантажити та скачати торренти українською


ТаРУТА - Народжені В Любові (2010) [FLAC] | Folk Rock

Нові коментарі

Нова тема   Відповісти
Автор Повідомлення
a_av 
Новенький


З нами з: 05.04.10
Востаннє: 04.12.16
Повідомлень: 11

2010-04-05 22:22  
ТаРУТА - Народжені В Любові (2010) [FLAC] | Folk Rock



Стиль: Folk Rock
Країна: Україна
Сайти: Офіційний сайт
Видавець: СТ "Укрмюзік"
Виконавці:
    Євген "Їжак" Романенко – вокал, акустична гітара (автор музики та слів);
    Олена "Копєйкіна" Романенко – народний спів (збирач фольклору);
    Олександра Тарасевич (Стражник) - народний спів (збирач фольклору);
    Данило Данилейко – сопілка, народний спів (збирач фольклору);
    В’ячеслав Перепелиця – гітара електрична та класична;
    Мар'яна Мархель – скрипка;
    Максим Бойко – гітара басова, труба, тромбон;
    Андрій Кузьменко – перкусія;
    Тарас Козак – барабани, перкусія, ксилофон

Пісні:
    01 - Благослови, Боже!
    02 - Думки
    03 - Маячня
    04 - Журавка
    05 - Плаття-Душа
    06 - ШевченкА
    07 - Купайло
    08 - Синя Хмара
    09 - Духовний ПарАвіз
    10 - Лелека
    11 - Пісня в дарунок: Париться-хмариться - запис з концерту "Василь Гончарський: Світла Присвята" (11.07.2009)

Тривалість: 00:47:22
Мова: українська
Аудіо-кодек: FLAC
Бітрейт: 856-1076 кб/с
Джерело: Власний диск
Додаткова інформація

На столичній звукотвірні "Комора" закінчилися роботи над дебютним пісенником "Етно-Рок Фундації "ТаРУТА". Мастер-диск платівки, що отримала назву "Народжені в ЛЮБОВІ", нещодавно передав гудцям з "ТаРУТА" Костянтин Костенко. Саме він опікувався оригінальним звучанням колективу і створював найліпші умови для звукозапису. Не останнім в цій справі виявився і молодий київський впровадник Олександр Снідалов, який підтримував "тарутян" як морально, так і фінансово.
Тож спільними зусиллями митців і меценатів на "Коморі" було створено 11 оригінальних награнь, об’єднаних у концепцію "Народжені в ЛЮБОВІ". "З таким настроєм ці пісні і народжувалися, і записувалися. Інакше й бути не могло, оскільки саме під час роботи над цим матеріалом троє гудців колективу – я, Данило Данилейко та Максим Бойко – стали татусями. Хто вперше, а хто і вдруге. В результаті пісенник вийшов дуже позитивний і душевний", - пояснює назву платівки керманич "Етно-Рок Фундації "ТаРУТА" Євген "Їжак" Романенко.
Починатиметься він традиційним співаним благословенням, без якого на Вкраїні не обходився жоден почин. А закінчуватиметься піснею в дарунок, яку було додано до змісту задля вшанування пам’яті Василя Гончарського, засновника гурту "Вася Club". Наразі завершуються роботи над візуальним оформленням плити. Над цим працює відомий фотохудожник з Вільнюсу Юозас Валіушайтіс. А також ведуться перемовини з провідними видавництвами України та Литви про тиражування та розповсюдження "Народжених в ЛЮБОВІ". Тож незабаром шукайте дебютник від "ТаРУТА" вже і у своєму місті.
Звіт EAC

Exact Audio Copy V0.99 prebeta 5 from 4. May 2009

EAC extraction logfile from 5. April 2010, 18:32

ТаРута / Народжені В Любові

Used drive : _NEC DVD_RW ND-2510A Adapter: 1 ID: 0

Read mode : Secure
Utilize accurate stream : Yes
Defeat audio cache : Yes
Make use of C2 pointers : No

Read offset correction : 48
Overread into Lead-In and Lead-Out : No
Fill up missing offset samples with silence : Yes
Delete leading and trailing silent blocks : No
Null samples used in CRC calculations : Yes
Used interface : Native Win32 interface for Win NT & 2000

Used output format : Internal WAV Routines
Sample format : 44.100 Hz; 16 Bit; Stereo

TOC of the extracted CD

Track | Start | Length | Start sector | End sector
---------------------------------------------------------
1 | 0:00.00 | 0:43.70 | 0 | 3294
2 | 0:43.70 | 4:00.02 | 3295 | 21296
3 | 4:43.72 | 4:00.65 | 21297 | 39361
4 | 8:44.62 | 4:33.22 | 39362 | 59858
5 | 13:18.09 | 4:37.22 | 59859 | 80655
6 | 17:55.31 | 4:40.01 | 80656 | 101656
7 | 22:35.32 | 4:10.05 | 101657 | 120411
8 | 26:45.37 | 5:28.28 | 120412 | 145039
9 | 32:13.65 | 5:18.35 | 145040 | 168924
10 | 37:32.25 | 5:27.22 | 168925 | 193471
11 | 42:59.47 | 4:25.21 | 193472 | 213367

Range status and errors

Selected range

Filename C:\ТаРута.wav

Peak level 100.0 %
Range quality 99.9 %
Copy CRC AA9A0AD0
Copy OK

No errors occurred

End of status report
Від себе:Найкраще, що чув останнім часом. Всім раджу. Якщо сподобалось, прохання придбати оригінальний диск. Матеріал викладено тільки для ознайомлення!



16.04.2010 Торрент змінено у зв'язку з додаванням до роздачі обкладинок диску. Прохання до всіх, хто вже завантажив матеріал перезавантажити торрент.


Якщо Ви справді бажаєте підтримати українське - після прослуховування, якщо музика вам сподобалась, придбайте ліцензійний диск. Підтримаймо вітчизняних виконавців!


Срібний реліз (на рейтинг впливає 50% завантаженого)
 Трекер:    Зареєстрований   

Завантажити / скачати українську музику



відео для новачків



 Зареєстрований:   2010-04-16 19:54
 Розмір:   348 MB 
 Оцінка музики:   9.6/10 (Голосів: 11)
   
Лайка Добра 
Забанено
Забанено


З нами з: 06.04.10
Востаннє: 01.06.10
Повідомлень: 78

2010-04-09 12:09  
"Ти лети ой ти лети, моя лелечко..."!
Не пригадаю точно скільки сотень тисяч разів милувалась та насолоджувалась цим витвором!
ТаРУТА вміє врівноважити та підняти настрій! Красно вам Дякую, пане a_av !!! Happy

looprevil 
Частий відвідувач


З нами з: 06.02.09
Востаннє: 26.11.15
Повідомлень: 37

2010-04-15 17:35  
полюбляю ТаРуту! але краще їх слухати наживо...
Ваш часовий пояс: GMT + 2 Години

Нова тема   Відповісти