Завантажити та скачати торренти українською


Марія Бурмака | Колекція [7 альбомів, 1 збірка, 1 Live] (1994-2008) [FLAC] | Pop-Rock

Нові коментарі

Нова тема   Відповісти
Автор Повідомлення
plyrvt 
VIP


З нами з: 03.12.08
Востаннє: 09.12.16
Повідомлень: 398

2010-04-03 00:13  
Марія Бурмака | Колекція [7 альбомів, 1 збірка, 1 Live] (1994-2008) [FLAC] | Pop-Rock



Стиль: Pop Rock
Країна, місто: Україна, Харків-Київ
Сайти: Офіційний сайт

Альбоми:
1994 - Лишається Надiя


01 - Лишається надiя - 4:30
02 - Ми йдемо - 5:09
03 - Я люблю твої кроки - 3:30
04 - Не зникай - 3:52
05 - І день мине - 4:07
06 - Вербовая Дощечка - 3:44
07 - Дощ - 4:34
08 - Єдиного слова заради - 4:05
09 - Ходить сон - 3:16
10 - Пiд облачком - 4:04
11 - Дотиком крила - 4:52

Тривалість: 00:45:43
Видавець: 1998 НОВА Рекордс
EAC Log
відсутній
Audiochecker Log
AUDIOCHECKER v2.0 beta (build 457) - by Dester - [email protected]
~~~~~~~~~~~~~~~~~~~~~~~~~~~~~~~~~~
-=== DO NOT EDIT THIS FILE! ===-

Path: ...\1994 - Лишається Надiя

01 -=- 01 - Лишається надiя.wav -=- CDDA (100%)
02 -=- 02 - Ми йдемо.wav -=- CDDA (99%)
03 -=- 03 - Я люблю твої кроки.wav -=- CDDA (100%)
04 -=- 04 - Не зникай.wav -=- CDDA (100%)
05 -=- 05 - І день мине.wav -=- CDDA (100%)
06 -=- 06 - Вербовая Дощечка.wav -=- CDDA (100%)
07 -=- 07 - Дощ.wav -=- CDDA (100%)
08 -=- 08 - Єдиного слова заради.wav -=- CDDA (100%)
09 -=- 09 - Ходить сон.wav -=- CDDA (100%)
10 -=- 10 - Пiд облачком.wav -=- CDDA (100%)
11 -=- 11 - Дотиком крила.wav -=- CDDA (100%)

Summary 99,91% CDDA

229473156
1998 - Знову люблю


01 - Розлюби - 3:38
02 - Я сама - 4:40
03 - Де ти тепер - 4:06
04 - Відлітає печаль - 3:41
05 - Знову люблю - 3:52
06 - Тиха вода, рання роса - 3:20
07 - На півдорозі із раю - 3:37
08 - Різдв'яна - 2:01
09 - По Різдві - 3:33
10 - Пролітала стрілою - 3:25
11 - Повернутись назад - 4:04
12 - Південного вітру обличчя - 3:35

Тривалість: 00:43:33
Видавець: 1999 КП "Простір" (запис 1997 "Аркадія Симфо")
EAC Log
Exact Audio Copy V0.99 prebeta 5 from 4. May 2009

Отчёт EAC об извлечении, выполненном 14. ноября 2009, 19:32

Марія Бурмака / Знову люблю

Дисковод: Optiarc DVD RW AD-7173S Adapter: 5 ID: 0

Режим чтения : Достоверность
Использование точного потока : Да
Отключение кэша аудио : Да
Использование указателей C2 : Нет

Коррекция смещения при чтении : 48
Способность читать области Lead-in и Lead-out : Нет
Заполнение пропущенных сэмплов тишиной : Да
Удаление блоков с тишиной в начале и конце : Нет
При вычислениях CRC использовались нулевые сэмплы : Да
Интерфейс : Встроенный Win32-интерфейс для Win NT/2000

Выходной формат : Внутренние WAV-операции
Формат сэмплов : 44.100 Гц; 16 бит; стерео

TOC извлечённого CD

Трек | Старт | Длительность | Начальный сектор | Конечный сектор
---------------------------------------------------------------------
1 | 0:00.00 | 3:38.04 | 0 | 16353
2 | 3:38.04 | 4:40.32 | 16354 | 37385
3 | 8:18.36 | 4:05.63 | 37386 | 55823
4 | 12:24.24 | 3:40.52 | 55824 | 72375
5 | 16:05.01 | 3:52.23 | 72376 | 89798
6 | 19:57.24 | 3:20.09 | 89799 | 104807
7 | 23:17.33 | 3:37.30 | 104808 | 121112
8 | 26:54.63 | 2:01.13 | 121113 | 130200
9 | 28:56.01 | 3:33.08 | 130201 | 146183
10 | 32:29.09 | 3:25.01 | 146184 | 161559
11 | 35:54.10 | 4:04.08 | 161560 | 179867
12 | 39:58.18 | 3:35.12 | 179868 | 196004

Характеристики диапазона извлечения и сообщения об ошибках

Выбранный диапазон

Имя файла C:\Users\Женя\Desktop\Марія Бурмака - Знову люблю (1998)\Марія Бурмака - Знову люблю.wav

Пиковый уровень 100.0 %
Качество диапазона 100.0 %
CRC теста 1627DBF3
CRC копии 1627DBF3
Копирование... OK

Ошибок не произошло

AccurateRip: сводка

Трек 1 точное извлечение (доверие 1) [361F7033]
Трек 2 точное извлечение (доверие 1) [9D841864]
Трек 3 точное извлечение (доверие 1) [F6B1DF7A]
Трек 4 точное извлечение (доверие 1) [A873AEC0]
Трек 5 точное извлечение (доверие 1) [E5B5DAF8]
Трек 6 точное извлечение (доверие 1) [5BF73CFA]
Трек 7 точное извлечение (доверие 1) [C593749E]
Трек 8 точное извлечение (доверие 1) [81A16B03]
Трек 9 точное извлечение (доверие 1) [7C30BA18]
Трек 10 точное извлечение (доверие 1) [70C2C49F]
Трек 11 точное извлечение (доверие 1) [8DDA584D]
Трек 12 точное извлечение (доверие 1) [1648DFBB]

Все треки извлечены точно

Конец отчёта
Audiochecker Log
AUDIOCHECKER v2.0 beta (build 457) - by Dester - [email protected]
~~~~~~~~~~~~~~~~~~~~~~~~~~~~~~~~~~
-=== DO NOT EDIT THIS FILE! ===-

Path: ...\1998 - Знову люблю

01 -=- 01 - Розлюби.wav -=- CDDA (100%)
02 -=- 02 - Я сама.wav -=- CDDA (100%)
03 -=- 03 - Де ти тепер.wav -=- CDDA (100%)
04 -=- 04 - Відлітає печаль.wav -=- CDDA (100%)
05 -=- 05 - Знову люблю.wav -=- CDDA (99%)
06 -=- 06 - Тиха вода, рання роса.wav -=- CDDA (100%)
07 -=- 07 - На півдорозі із раю.wav -=- CDDA (100%)
08 -=- 08 - Різдв'яна.wav -=- CDDA (100%)
09 -=- 09 - По Різдві.wav -=- CDDA (100%)
10 -=- 10 - Пролітала стрілою.wav -=- CDDA (100%)
11 -=- 11 - Повернутись назад.wav -=- CDDA (100%)
12 -=- 12 - Південного вітру обличчя.wav -=- CDDA (100%)

Summary 99,92% CDDA

115316964
2001 - Із янголом на плечі


01 - Ой гула гула крутая гора - 1:48
02 - Меланка - 2:34
03 - Ой у полі при дорозі - 3:21
04 - Хтось із дитям удвох - 1:43
05 - Місяцю - рогоженьку - 2:01
06 - Із янголом на плечі - 2:42
07 - Тихо цокає годинник - 4:07
08 - Ангел - охоронець - 3:33
09 - Різдв'яна - 2:03
10 - По різдві - 3:35
11 - Ой гула гула - 3:46

Тривалість: 00:31:14
Видавець: ТОВ "НАК"
EAC Log
Exact Audio Copy V0.99 prebeta 5 from 4. May 2009

Отчёт EAC об извлечении, выполненном 14. ноября 2009, 20:19

Марія Бурмака / Із янголом на плечі

Дисковод: Optiarc DVD RW AD-7173S Adapter: 5 ID: 0

Режим чтения : Достоверность
Использование точного потока : Да
Отключение кэша аудио : Да
Использование указателей C2 : Нет

Коррекция смещения при чтении : 48
Способность читать области Lead-in и Lead-out : Нет
Заполнение пропущенных сэмплов тишиной : Да
Удаление блоков с тишиной в начале и конце : Нет
При вычислениях CRC использовались нулевые сэмплы : Да
Интерфейс : Встроенный Win32-интерфейс для Win NT/2000

Выходной формат : Внутренние WAV-операции
Формат сэмплов : 44.100 Гц; 16 бит; стерео

TOC извлечённого CD

Трек | Старт | Длительность | Начальный сектор | Конечный сектор
---------------------------------------------------------------------
1 | 0:00.00 | 1:48.33 | 0 | 8132
2 | 1:48.33 | 2:33.54 | 8133 | 19661
3 | 4:22.12 | 3:21.26 | 19662 | 34762
4 | 7:43.38 | 1:43.21 | 34763 | 42508
5 | 9:26.59 | 2:01.16 | 42509 | 51599
6 | 11:28.00 | 2:42.11 | 51600 | 63760
7 | 14:10.11 | 4:07.13 | 63761 | 82298
8 | 18:17.24 | 3:33.00 | 82299 | 98273
9 | 21:50.24 | 2:03.13 | 98274 | 107511
10 | 23:53.37 | 3:35.08 | 107512 | 123644
11 | 27:28.45 | 3:45.41 | 123645 | 140560

Характеристики диапазона извлечения и сообщения об ошибках

Выбранный диапазон

Имя файла C:\Users\Женя\Desktop\Марія Бурмака - Із янголом на плечі (2001)\Марія Бурмака - Із янголом на плечі.wav

Пиковый уровень 100.0 %
Качество диапазона 100.0 %
CRC теста 53486AD1
CRC копии 53486AD1
Копирование... OK

Ошибок не произошло

AccurateRip: сводка

Трек 1 точное извлечение (доверие 1) [26F0A084]
Трек 2 точное извлечение (доверие 1) [700F6D8D]
Трек 3 точное извлечение (доверие 1) [9DF35DD1]
Трек 4 точное извлечение (доверие 1) [3E5217AF]
Трек 5 точное извлечение (доверие 1) [C5E32AE5]
Трек 6 точное извлечение (доверие 1) [219D4FB1]
Трек 7 точное извлечение (доверие 1) [FE524C91]
Трек 8 точное извлечение (доверие 1) [F4E8FB03]
Трек 9 точное извлечение (доверие 1) [123855AF]
Трек 10 точное извлечение (доверие 1) [C58BD7EA]
Трек 11 точное извлечение (доверие 1) [5F237F70]

Все треки извлечены точно

Конец отчёта
Audiochecker Log
AUDIOCHECKER v2.0 beta (build 457) - by Dester - [email protected]
~~~~~~~~~~~~~~~~~~~~~~~~~~~~~~~~~~
-=== DO NOT EDIT THIS FILE! ===-

Path: ...\2001 - Із янголом на плечі

01 -=- 01 - Ой гула гула крутая гора.wav -=- CDDA (100%)
02 -=- 02 - Меланка.wav -=- CDDA (100%)
03 -=- 03 - Ой у полі при дорозі.wav -=- CDDA (100%)
04 -=- 04 - Хтось із дитям удвох.wav -=- CDDA (100%)
05 -=- 05 - Місяцю - рогоженьку.wav -=- CDDA (100%)
06 -=- 06 - Із янголом на плечі.wav -=- CDDA (99%)
07 -=- 07 - Тихо цокає годинник.wav -=- CDDA (100%)
08 -=- 08 - Ангел - охоронець.wav -=- CDDA (99%)
09 -=- 09 - Різдв'яна.wav -=- CDDA (100%)
10 -=- 10 - По різдві.wav -=- CDDA (100%)
11 -=- 11 - Ой гула гула.wav -=- CDDA (100%)

Summary 99,82% CDDA

75499748
2002 - Міа


01 - Лети - 4:25
02 - Сонцем, небом, дощем - 3:51
03 - Листопад - 2:55
04 - Тихо цокає годинник - 4:07
05 - Чорні черешні - 4:19
06 - Забути все - 3:03
07 - Де ти тепер - 3:19
08 - Хто я така є - 3:08
09 - Їй холодно - 3:31
10 - Я сама - 3:45
11 - На півдорозі - 3:21
12 - Ангел охоронець - 3:23

Тривалість: 00:43:08
Видавець: ТОВ "НАК"
EAC Log
Exact Audio Copy V0.99 prebeta 5 from 4. May 2009

Отчёт EAC об извлечении, выполненном 14. ноября 2009, 19:53

Марія Бурмака / Міа

Дисковод: Optiarc DVD RW AD-7173S Adapter: 5 ID: 0

Режим чтения : Достоверность
Использование точного потока : Да
Отключение кэша аудио : Да
Использование указателей C2 : Нет

Коррекция смещения при чтении : 48
Способность читать области Lead-in и Lead-out : Нет
Заполнение пропущенных сэмплов тишиной : Да
Удаление блоков с тишиной в начале и конце : Нет
При вычислениях CRC использовались нулевые сэмплы : Да
Интерфейс : Встроенный Win32-интерфейс для Win NT/2000

Выходной формат : Внутренние WAV-операции
Формат сэмплов : 44.100 Гц; 16 бит; стерео

TOC извлечённого CD

Трек | Старт | Длительность | Начальный сектор | Конечный сектор
---------------------------------------------------------------------
1 | 0:00.00 | 4:24.54 | 0 | 19853
2 | 4:24.54 | 3:50.63 | 19854 | 37166
3 | 8:15.42 | 2:54.74 | 37167 | 50290
4 | 11:10.41 | 4:06.74 | 50291 | 68814
5 | 15:17.40 | 4:19.32 | 68815 | 88271
6 | 19:36.72 | 3:03.11 | 88272 | 102007
7 | 22:40.08 | 3:19.36 | 102008 | 116968
8 | 25:59.44 | 3:08.21 | 116969 | 131089
9 | 29:07.65 | 3:30.53 | 131090 | 146892
10 | 32:38.43 | 3:45.30 | 146893 | 163797
11 | 36:23.73 | 3:20.47 | 163798 | 178844
12 | 39:44.45 | 3:23.13 | 178845 | 194082

Характеристики диапазона извлечения и сообщения об ошибках

Выбранный диапазон

Имя файла C:\Users\Женя\Desktop\Марія Бурмака - Міа (2002)\Марія Бурмака - Міа.wav

Пиковый уровень 100.0 %
Качество диапазона 99.9 %
CRC теста E21EC63A
CRC копии E21EC63A
Копирование... OK

Ошибок не произошло

AccurateRip: сводка

Трек 1 точность не определена (достоверность 1) [0CB51738], AccurateRip вернул [D6E9D76B]
Трек 2 точность не определена (достоверность 1) [EC183C8A], AccurateRip вернул [A4DE54AE]
Трек 3 точность не определена (достоверность 1) [E06C84AA], AccurateRip вернул [8380FCBE]
Трек 4 точность не определена (достоверность 1) [E33367DB], AccurateRip вернул [DFA4CC07]
Трек 5 точность не определена (достоверность 1) [EB242CC0], AccurateRip вернул [D25EA03E]
Трек 6 точность не определена (достоверность 1) [3A129434], AccurateRip вернул [A4251882]
Трек 7 точность не определена (достоверность 1) [626469EA], AccurateRip вернул [E129D18A]
Трек 8 точность не определена (достоверность 1) [31D2C87F], AccurateRip вернул [3A936E6D]
Трек 9 точность не определена (достоверность 1) [1D83D8D0], AccurateRip вернул [C93DF10E]
Трек 10 точность не определена (достоверность 1) [9A2FA80B], AccurateRip вернул [F1CFD961]
Трек 11 точность не определена (достоверность 1) [1C2954C2], AccurateRip вернул [2B25FB54]
Трек 12 точность не определена (достоверность 1) [CEDDAD14], AccurateRip вернул [8B5D9E0C]

Ни один трек не прошёл проверки на точность
В вашей базе может быть иной вариант штамповки диска

Конец отчёта
Audiochecker Log
AUDIOCHECKER v2.0 beta (build 457) - by Dester - [email protected]
~~~~~~~~~~~~~~~~~~~~~~~~~~~~~~~~~~
-=== DO NOT EDIT THIS FILE! ===-

Path: ...\2002 - Міа

01 -=- 01 - Лети.wav -=- CDDA (100%)
02 -=- 02 - Сонцем, небом, дощем.wav -=- CDDA (100%)
03 -=- 03 - Листопад.wav -=- CDDA (100%)
04 -=- 04 - Тихо цокає годинник.wav -=- CDDA (100%)
05 -=- 05 - Чорні черешні.wav -=- CDDA (100%)
06 -=- 06 - Забути все.wav -=- CDDA (100%)
07 -=- 07 - Де ти тепер.wav -=- CDDA (100%)
08 -=- 08 - Хто я така є.wav -=- CDDA (100%)
09 -=- 09 - Їй холодно.wav -=- CDDA (100%)
10 -=- 10 - Я сама.wav -=- CDDA (100%)
11 -=- 11 - На півдорозі.wav -=- CDDA (100%)
12 -=- 12 - Ангел охоронець.wav -=- CDDA (99%)

Summary 99,92% CDDA

124367508
2003 - I Am


01 - Сонцем, небом, дощем (Tomato Jaws House Mix) - 3:50
02 - Чорні черешні (Danilkin Mix) - 6:17
03 - На півдорозі (Helen Cooli Mix) - 3:05
04 - Я сама (Макс Чорний Mix) - 3:32
05 - Лети (Dopes ov Air Mix) - 3:08
06 - Лети (DJ Derrick Garage Mix) - 5:33
07 - Де ти тепер (Max NRG Mix) - 4:01
08 - Я сама (Danilkin Mix) - 4:59
09 - Забути все (Zavoloka Mix) - 5:14
10 - Сонцем, небом, дощем (Tomato Jaws Electro Mix) - 3:29
11 - По Різдві (Андрій Трикіша UAmbient Collection Mix) - 3:32

Тривалість: 00:46:40
Видавець: ТОВ "НАК"
EAC Log
Exact Audio Copy V0.99 prebeta 5 from 4. May 2009

Отчёт EAC об извлечении, выполненном 15. января 2010, 1:00

Марія Бурмака / I Am

Дисковод: Optiarc DVD RW AD-7173S Adapter: 5 ID: 0

Режим чтения : Достоверность
Использование точного потока : Да
Отключение кэша аудио : Да
Использование указателей C2 : Нет

Коррекция смещения при чтении : 48
Способность читать области Lead-in и Lead-out : Нет
Заполнение пропущенных сэмплов тишиной : Да
Удаление блоков с тишиной в начале и конце : Нет
При вычислениях CRC использовались нулевые сэмплы : Да
Интерфейс : Встроенный Win32-интерфейс для Win NT/2000

Выходной формат : Внутренние WAV-операции
Формат сэмплов : 44.100 Гц; 16 бит; стерео

TOC извлечённого CD

Трек | Старт | Длительность | Начальный сектор | Конечный сектор
---------------------------------------------------------------------
1 | 0:00.00 | 3:49.48 | 0 | 17222
2 | 3:49.48 | 6:17.16 | 17223 | 45513
3 | 10:06.64 | 3:04.69 | 45514 | 59382
4 | 13:11.58 | 3:32.14 | 59383 | 75296
5 | 16:43.72 | 3:08.37 | 75297 | 89433
6 | 19:52.34 | 5:32.73 | 89434 | 114406
7 | 25:25.32 | 4:00.41 | 114407 | 132447
8 | 29:25.73 | 4:58.53 | 132448 | 154850
9 | 34:24.51 | 5:14.11 | 154851 | 178411
10 | 39:38.62 | 3:28.66 | 178412 | 194077
11 | 43:07.53 | 3:32.11 | 194078 | 209988

Характеристики диапазона извлечения и сообщения об ошибках

Выбранный диапазон

Имя файла C:\Users\Женя\Desktop\Марія Бурмака - I Am (2003)\Марія Бурмака - I Am.wav

Пиковый уровень 99.9 %
Качество диапазона 100.0 %
CRC теста 3D6E4523
CRC копии 3D6E4523
Копирование... OK

Ошибок не произошло

AccurateRip: сводка

Трек 1 точность не определена (достоверность 1) [5F6F93D8], AccurateRip вернул [EE770186]
Трек 2 точность не определена (достоверность 1) [C69A1475], AccurateRip вернул [A218D8CF]
Трек 3 точность не определена (достоверность 1) [4CF7CB49], AccurateRip вернул [2486E99D]
Трек 4 точность не определена (достоверность 1) [3DEEE587], AccurateRip вернул [06A847F1]
Трек 5 точность не определена (достоверность 1) [68FD5C01], AccurateRip вернул [FBA24121]
Трек 6 точность не определена (достоверность 1) [A10F1E5B], AccurateRip вернул [98FB3E57]
Трек 7 точность не определена (достоверность 1) [B0E916D9], AccurateRip вернул [D2E6EC17]
Трек 8 точность не определена (достоверность 1) [E7BB2320], AccurateRip вернул [468B3F4A]
Трек 9 точность не определена (достоверность 1) [DC447BBF], AccurateRip вернул [F2E33C73]
Трек 10 точность не определена (достоверность 1) [B6492BF6], AccurateRip вернул [08D392B2]
Трек 11 точность не определена (достоверность 1) [D4EA389C], AccurateRip вернул [943CEECE]

Ни один трек не прошёл проверки на точность
В вашей базе может быть иной вариант штамповки диска

Конец отчёта
Audiochecker Log
AUDIOCHECKER v2.0 beta (build 457) - by Dester - [email protected]
~~~~~~~~~~~~~~~~~~~~~~~~~~~~~~~~~~
-=== DO NOT EDIT THIS FILE! ===-

Path: ...\2003 - I Am

01 -=- 01 - Сонцем, небом, дощем (Tomato Jaws House Mix).wav -=- CDDA (100%)
02 -=- 02 - Чорні черешні (Danilkin Mix).wav -=- MPEG (95%)
03 -=- 03 - На півдорозі (Helen Cooli Mix).wav -=- CDDA (100%)
04 -=- 04 - Я сама (Макс Чорний Mix).wav -=- CDDA (100%)
05 -=- 05 - Лети (Dopes ov Air Mix).wav -=- CDDA (100%)
06 -=- 06 - Лети (DJ Derrick Garage Mix).wav -=- CDDA (100%)
07 -=- 07 - Де ти тепер (Max NRG Mix).wav -=- CDDA (100%)
08 -=- 08 - Я сама (Danilkin Mix).wav -=- CDDA (100%)
09 -=- 09 - Забути все (Zavoloka Mix).wav -=- CDDA (100%)
10 -=- 10 - Сонцем, небом, дощем (Tomato Jaws Electro Mix).wav -=- CDDA (100%)
11 -=- 11 - По Різдві (Андрій Трикіша UAmbient Collection Mix).wav -=- CDDA (100%)

Summary 91,36% CDDA

114406884
2003 - Live


01 - Південного вітру обличчя - 4:30
02 - Розлюби - 4:11
03 - Відлітає печаль - 3:43
04 - Поміж нами - 3:46
05 - Їй холодно - 3:46
06 - Дощ - 5:01
07 - Чорні черешні - 4:24
08 - Де ти тепер - 4:28
09 - Я люблю твої кроки - 3:01
10 - На півдорозі - 3:39
11 - Хто я така є - 3:43

Тривалість: 00:44:12
Видавець: Атлантік
EAC Log
Exact Audio Copy V0.99 prebeta 5 from 4. May 2009

Отчёт EAC об извлечении, выполненном 14. ноября 2009, 18:32

Марія Бурмака / Live

Дисковод: Optiarc DVD RW AD-7173S Adapter: 5 ID: 0

Режим чтения : Достоверность
Использование точного потока : Да
Отключение кэша аудио : Да
Использование указателей C2 : Нет

Коррекция смещения при чтении : 48
Способность читать области Lead-in и Lead-out : Нет
Заполнение пропущенных сэмплов тишиной : Да
Удаление блоков с тишиной в начале и конце : Нет
При вычислениях CRC использовались нулевые сэмплы : Да
Интерфейс : Встроенный Win32-интерфейс для Win NT/2000

Выходной формат : Внутренние WAV-операции
Формат сэмплов : 44.100 Гц; 16 бит; стерео

TOC извлечённого CD

Трек | Старт | Длительность | Начальный сектор | Конечный сектор
---------------------------------------------------------------------
1 | 0:00.00 | 4:30.08 | 0 | 20257
2 | 4:30.08 | 4:10.41 | 20258 | 39048
3 | 8:40.49 | 3:43.31 | 39049 | 55804
4 | 12:24.05 | 3:46.30 | 55805 | 72784
5 | 16:10.35 | 3:45.49 | 72785 | 89708
6 | 19:56.09 | 5:01.06 | 89709 | 112289
7 | 24:57.15 | 4:24.22 | 112290 | 132111
8 | 29:21.37 | 4:28.35 | 132112 | 152246
9 | 33:49.72 | 3:00.46 | 152247 | 165792
10 | 36:50.43 | 3:38.45 | 165793 | 182187
11 | 40:29.13 | 3:42.43 | 182188 | 198880
12 | 46:43.56 | 11:50.10 | 210281 | 263540

Характеристики диапазона извлечения и сообщения об ошибках

Выбранный диапазон

Имя файла C:\Users\Женя\Desktop\Марія Бурмака - Live (2003)\Марія Бурмака - Live.wav

Пиковый уровень 96.6 %
Качество диапазона 99.9 %
CRC теста 65A52DE7
CRC копии 65A52DE7
Копирование... OK

Ошибок не произошло

AccurateRip: сводка

Трек 1 нет в базе данных
Трек 2 нет в базе данных
Трек 3 нет в базе данных
Трек 4 нет в базе данных
Трек 5 нет в базе данных
Трек 6 нет в базе данных
Трек 7 нет в базе данных
Трек 8 нет в базе данных
Трек 9 нет в базе данных
Трек 10 нет в базе данных
Трек 11 нет в базе данных

Ни одного трека нет в базе AccurateRip

Конец отчёта
Audiochecker Log
AUDIOCHECKER v2.0 beta (build 457) - by Dester - [email protected]
~~~~~~~~~~~~~~~~~~~~~~~~~~~~~~~~~~
-=== DO NOT EDIT THIS FILE! ===-

Path: ...\2003 - Live

01 -=- 01 - Південного вітру обличчя.wav -=- CDDA (100%)
02 -=- 02 - Розлюби.wav -=- CDDA (100%)
03 -=- 03 - Відлітає печаль.wav -=- CDDA (99%)
04 -=- 04 - Поміж нами.wav -=- CDDA (100%)
05 -=- 05 - Їй холодно.wav -=- CDDA (100%)
06 -=- 06 - Дощ.wav -=- CDDA (100%)
07 -=- 07 - Чорні черешні.wav -=- CDDA (100%)
08 -=- 08 - Де ти тепер.wav -=- CDDA (100%)
09 -=- 09 - Я люблю твої кроки.wav -=- CDDA (100%)
10 -=- 10 - На півдорозі.wav -=- CDDA (100%)
11 -=- 11 - Хто я така є.wav -=- CDDA (100%)

Summary 99,91% CDDA

127724596
2004 - №9


01 - Чому - 3:16
02 - Це не тільки шоколад - 3:28
03 - Той, той - 4:14
04 - Тiльки мовчи - 3:27
05 - Скло - 3:49
06 - Помiж нами - 3:13
07 - Нехай - 3:57
08 - Нiхто iз нас - 3:35
09 - Не бiйся жити - 3:47
10 - Мiсто ангелiв - 3:13

Тривалість: 00:36:01
Видавець: HMU (Hunter Music Ukraine)
EAC Log
Exact Audio Copy V0.99 prebeta 5 from 4. May 2009

Отчёт EAC об извлечении, выполненном 14. ноября 2009, 18:48

Марія Бурмака / № 9

Дисковод: Optiarc DVD RW AD-7173S Adapter: 5 ID: 0

Режим чтения : Достоверность
Использование точного потока : Да
Отключение кэша аудио : Да
Использование указателей C2 : Нет

Коррекция смещения при чтении : 48
Способность читать области Lead-in и Lead-out : Нет
Заполнение пропущенных сэмплов тишиной : Да
Удаление блоков с тишиной в начале и конце : Нет
При вычислениях CRC использовались нулевые сэмплы : Да
Интерфейс : Встроенный Win32-интерфейс для Win NT/2000

Выходной формат : Внутренние WAV-операции
Формат сэмплов : 44.100 Гц; 16 бит; стерео

TOC извлечённого CD

Трек | Старт | Длительность | Начальный сектор | Конечный сектор
---------------------------------------------------------------------
1 | 0:00.00 | 3:15.71 | 0 | 14695
2 | 3:15.71 | 3:28.30 | 14696 | 30325
3 | 6:44.26 | 4:13.69 | 30326 | 49369
4 | 10:58.20 | 3:27.08 | 49370 | 64902
5 | 14:25.28 | 3:49.08 | 64903 | 82085
6 | 18:14.36 | 3:13.31 | 82086 | 96591
7 | 21:27.67 | 3:57.32 | 96592 | 114398
8 | 25:25.24 | 3:34.56 | 114399 | 130504
9 | 29:00.05 | 3:47.04 | 130505 | 147533
10 | 32:47.09 | 3:13.33 | 147534 | 162041
11 | 38:32.42 | 16:32.51 | 173442 | 247892

Характеристики диапазона извлечения и сообщения об ошибках

Выбранный диапазон

Имя файла C:\Users\Женя\Desktop\Марія Бурмака - № 9 (2004)\Марія Бурмака - № 9.wav

Пиковый уровень 100.0 %
Качество диапазона 99.9 %
CRC теста 50EBCDF4
CRC копии 50EBCDF4
Копирование... OK

Ошибок не произошло

AccurateRip: сводка

Трек 1 нет в базе данных
Трек 2 нет в базе данных
Трек 3 нет в базе данных
Трек 4 нет в базе данных
Трек 5 нет в базе данных
Трек 6 нет в базе данных
Трек 7 нет в базе данных
Трек 8 нет в базе данных
Трек 9 нет в базе данных
Трек 10 нет в базе данных

Ни одного трека нет в базе AccurateRip

Конец отчёта
Audiochecker Log
AUDIOCHECKER v2.0 beta (build 457) - by Dester - [email protected]
~~~~~~~~~~~~~~~~~~~~~~~~~~~~~~~~~~
-=== DO NOT EDIT THIS FILE! ===-

Path: ...\2004 - №9

01 -=- 01 - Чому.wav -=- CDDA (100%)
02 -=- 02 - Це не тільки шоколад.wav -=- CDDA (100%)
03 -=- 03 - Той, той.wav -=- CDDA (100%)
04 -=- 04 - Тiльки мовчи.wav -=- CDDA (100%)
05 -=- 05 - Скло.wav -=- CDDA (100%)
06 -=- 06 - Помiж нами.wav -=- CDDA (100%)
07 -=- 07 - Нехай.wav -=- CDDA (100%)
08 -=- 08 - Нiхто iз нас.wav -=- CDDA (100%)
09 -=- 09 - Не бiйся жити.wav -=- CDDA (100%)
10 -=- 10 - Мiсто ангелiв.wav -=- CDDA (100%)

Summary 100,00% CDDA

872148
2004 - Ми йдемо! Найкраще


01 - Ми йдемо - 4:51
02 - Розлюби - 3:37
03 - Чому - 3:19
04 - Листопад - 2:57
05 - Коли б ми плакати могли - 2:01
06 - Я сама - 3:46
07 - Ангел-охоронець - 3:25
08 - Скло - 3:53
09 - Місто ангелів - 3:16
10 - Це не тільки шоколад - 3:33
11 - Ой чия то рута-м'ята - 1:25
12 - Хтось близький приснився - 1:16
13 - Не бійся жити - 3:51
14 - Хтось із дитям удвох - 1:44
15 - Ой у полі при дорозі - 3:23
16 - Сонцем, небом, дощем - 3:51

Тривалість: 00:50:07
Видавець: Ukrainian Records
EAC Log
Exact Audio Copy V0.99 prebeta 5 from 4. May 2009

Отчёт EAC об извлечении, выполненном 14. ноября 2009, 19:06

Марія Бурмака / Ми йдемо! Найкраще

Дисковод: Optiarc DVD RW AD-7173S Adapter: 5 ID: 0

Режим чтения : Достоверность
Использование точного потока : Да
Отключение кэша аудио : Да
Использование указателей C2 : Нет

Коррекция смещения при чтении : 48
Способность читать области Lead-in и Lead-out : Нет
Заполнение пропущенных сэмплов тишиной : Да
Удаление блоков с тишиной в начале и конце : Нет
При вычислениях CRC использовались нулевые сэмплы : Да
Интерфейс : Встроенный Win32-интерфейс для Win NT/2000

Выходной формат : Внутренние WAV-операции
Формат сэмплов : 44.100 Гц; 16 бит; стерео

TOC извлечённого CD

Трек | Старт | Длительность | Начальный сектор | Конечный сектор
---------------------------------------------------------------------
1 | 0:00.00 | 4:50.69 | 0 | 21818
2 | 4:50.69 | 3:37.14 | 21819 | 38107
3 | 8:28.08 | 3:19.14 | 38108 | 53046
4 | 11:47.22 | 2:57.09 | 53047 | 66330
5 | 14:44.31 | 2:01.30 | 66331 | 75435
6 | 16:45.61 | 3:46.04 | 75436 | 92389
7 | 20:31.65 | 3:24.71 | 92390 | 107760
8 | 23:56.61 | 3:52.67 | 107761 | 125227
9 | 27:49.53 | 3:16.02 | 125228 | 139929
10 | 31:05.55 | 3:32.71 | 139930 | 155900
11 | 34:38.51 | 1:24.44 | 155901 | 162244
12 | 36:03.20 | 1:15.47 | 162245 | 167916
13 | 37:18.67 | 3:51.00 | 167917 | 185241
14 | 41:09.67 | 1:43.60 | 185242 | 193026
15 | 42:53.52 | 3:22.68 | 193027 | 208244
16 | 46:16.45 | 3:50.53 | 208245 | 225547
17 | 52:39.23 | 10:47.22 | 236948 | 285494

Характеристики диапазона извлечения и сообщения об ошибках

Выбранный диапазон

Имя файла C:\Users\Женя\Desktop\Марія Бурмака - Ми йдемо! Найкраще (2004)\Марія Бурмака - Ми йдемо! Найкраще.wav

Пиковый уровень 98.8 %
Качество диапазона 100.0 %
CRC теста C28EF443
CRC копии C28EF443
Копирование... OK

Ошибок не произошло

AccurateRip: сводка

Трек 1 нет в базе данных
Трек 2 нет в базе данных
Трек 3 нет в базе данных
Трек 4 нет в базе данных
Трек 5 нет в базе данных
Трек 6 нет в базе данных
Трек 7 нет в базе данных
Трек 8 нет в базе данных
Трек 9 нет в базе данных
Трек 10 нет в базе данных
Трек 11 нет в базе данных
Трек 12 нет в базе данных
Трек 13 нет в базе данных
Трек 14 нет в базе данных
Трек 15 нет в базе данных
Трек 16 нет в базе данных

Ни одного трека нет в базе AccurateRip

Конец отчёта
Audiochecker Log
AUDIOCHECKER v2.0 beta (build 457) - by Dester - [email protected]
~~~~~~~~~~~~~~~~~~~~~~~~~~~~~~~~~~
-=== DO NOT EDIT THIS FILE! ===-

Path: ...\2004 - Ми йдемо! Найкраще

01 -=- 01 - Ми йдемо.wav -=- MPEG (95%)
02 -=- 02 - Розлюби.wav -=- MPEG (95%)
03 -=- 03 - Чому.wav -=- CDDA (100%)
04 -=- 04 - Листопад.wav -=- MPEG (95%)
05 -=- 05 - Коли б ми плакати могли.wav -=- MPEG (95%)
06 -=- 06 - Я сама.wav -=- MPEG (95%)
07 -=- 07 - Ангел-охоронець.wav -=- MPEG (95%)
08 -=- 08 - Скло.wav -=- CDDA (100%)
09 -=- 09 - Місто ангелів.wav -=- CDDA (100%)
10 -=- 10 - Це не тільки шоколад.wav -=- CDDA (100%)
11 -=- 11 - Ой чия то рута-м'ята.wav -=- MPEG (95%)
12 -=- 12 - Хтось близький приснився.wav -=- MPEG (95%)
13 -=- 13 - Не бійся жити.wav -=- CDDA (100%)
14 -=- 14 - Хтось із дитям удвох.wav -=- MPEG (95%)
15 -=- 15 - Ой у полі при дорозі.wav -=- MPEG (95%)
16 -=- 16 - Сонцем, небом, дощем.wav -=- MPEG (95%)

Summary 34,69% CDDA

97505716
2008 - Саундтреки


01 - Забудь - 3:53
02 - День народження - 4:00
03 - Пробач - 3:35
04 - Можеш далі - 3:32
05 - Під облачком - 3:29
06 - І якщо колись - 3:33
07 - Ти зустрінеш ії - 4:00
08 - Не тому - 3:34
09 - Поранена в серце - 3:15
10 - Попрощатись не зуміли - 3:55
11 - Літня пісня - 3:39
12 - Арешт - 4:52
13 - Пробач (dens mix) - 4:19
14 - Не бійся жити (mix) - 8:02

Тривалість: 00:57:38
Видавець: Moon records
EAC Log
Exact Audio Copy V0.99 prebeta 5 from 4. May 2009

Отчёт EAC об извлечении, выполненном 14. ноября 2009, 21:02

Марія Бурмака / Саундтреки

Дисковод: Optiarc DVD RW AD-7173S Adapter: 5 ID: 0

Режим чтения : Достоверность
Использование точного потока : Да
Отключение кэша аудио : Да
Использование указателей C2 : Нет

Коррекция смещения при чтении : 48
Способность читать области Lead-in и Lead-out : Нет
Заполнение пропущенных сэмплов тишиной : Да
Удаление блоков с тишиной в начале и конце : Нет
При вычислениях CRC использовались нулевые сэмплы : Да
Интерфейс : Встроенный Win32-интерфейс для Win NT/2000

Выходной формат : Внутренние WAV-операции
Формат сэмплов : 44.100 Гц; 16 бит; стерео

TOC извлечённого CD

Трек | Старт | Длительность | Начальный сектор | Конечный сектор
---------------------------------------------------------------------
1 | 0:00.00 | 3:52.71 | 0 | 17470
2 | 3:52.71 | 4:00.19 | 17471 | 35489
3 | 7:53.15 | 3:34.62 | 35490 | 51601
4 | 11:28.02 | 3:31.43 | 51602 | 67469
5 | 14:59.45 | 3:29.05 | 67470 | 83149
6 | 18:28.50 | 3:33.31 | 83150 | 99155
7 | 22:02.06 | 3:59.73 | 99156 | 117153
8 | 26:02.04 | 3:33.70 | 117154 | 133198
9 | 29:35.74 | 3:14.48 | 133199 | 147796
10 | 32:50.47 | 3:55.33 | 147797 | 165454
11 | 36:46.05 | 3:39.28 | 165455 | 181907
12 | 40:25.33 | 4:51.51 | 181908 | 203783
13 | 45:17.09 | 4:19.07 | 203784 | 223215
14 | 49:36.16 | 8:01.63 | 223216 | 259353
15 | 60:10.04 | 18:43.65 | 270754 | 355043

Характеристики диапазона извлечения и сообщения об ошибках

Выбранный диапазон

Имя файла C:\Users\Женя\Desktop\Марія Бурмака - Саундтреки (2008)\Марія Бурмака - Саундтреки.wav

Пиковый уровень 100.0 %
Качество диапазона 99.9 %
CRC теста 235AEE4C
CRC копии 235AEE4C
Копирование... OK

Ошибок не произошло

AccurateRip: сводка

Трек 1 нет в базе данных
Трек 2 нет в базе данных
Трек 3 нет в базе данных
Трек 4 нет в базе данных
Трек 5 нет в базе данных
Трек 6 нет в базе данных
Трек 7 нет в базе данных
Трек 8 нет в базе данных
Трек 9 нет в базе данных
Трек 10 нет в базе данных
Трек 11 нет в базе данных
Трек 12 нет в базе данных
Трек 13 нет в базе данных
Трек 14 нет в базе данных

Ни одного трека нет в базе AccurateRip

Конец отчёта
Audiochecker Log
AUDIOCHECKER v2.0 beta (build 457) - by Dester - [email protected]
~~~~~~~~~~~~~~~~~~~~~~~~~~~~~~~~~~
-=== DO NOT EDIT THIS FILE! ===-

Path: ...\2008 - Саундтреки

01 -=- 01 - Забудь.wav -=- MPEG (95%)
02 -=- 02 - День народження.wav -=- CDDA (100%)
03 -=- 03 - Пробач.wav -=- CDDA (100%)
04 -=- 04 - Можеш далі.wav -=- CDDA (100%)
05 -=- 05 - Під облачком.wav -=- CDDA (100%)
06 -=- 06 - І якщо колись.wav -=- CDDA (100%)
07 -=- 07 - Ти зустрінеш ії.wav -=- CDDA (100%)
08 -=- 08 - Не тому.wav -=- CDDA (100%)
09 -=- 09 - Поранена в серце.wav -=- CDDA (99%)
10 -=- 10 - Попрощатись не зуміли.wav -=- CDDA (100%)
11 -=- 11 - Літня пісня.wav -=- CDDA (99%)
12 -=- 12 - Арешт.wav -=- CDDA (100%)
13 -=- 13 - Пробач (dens mix).wav -=- CDDA (100%)
14 -=- 14 - Не бійся жити (mix).wav -=- CDDA (100%)

Summary 93,07% CDDA

3159092
Data CD

Video: Divx v5 25.00fps
Audio: MP3 48000Hz stereo 128 Kbps

I_yakscho_kolys.avi
Відео: 616*480 (4:3) 1110 Kbps


Ne_tomu.avi
Відео: 648*480 (4:3) 1114 Kbps


Poproschatys_ne_zumily].avi
Відео: 656*384 (16:9) 1111 Kbps


Probach.avi
Відео: 600*346 (16:9) 1107 Kbps


Probach(mix).avi
Відео: 656*356 (16:9) 1109 Kbps
Тривалість: 06:38:16
Мова: українська
Аудіо-кодек: FLAC
Ріп: image+*.cue (EAC Log, audiochecker log) - крім альбому 1994
EAC: Secure + Accurate stream + disable cache/C2 + Read offset correction
Бітрейт: lossless (~800-972 кбіт/сек)
Джерело: rutracker.org (dm-71), share.net.ua (Olaf)



Якщо Ви справді бажаєте підтримати українське - після прослуховування, якщо музика вам сподобалась, придбайте ліцензійний диск. Підтримаймо вітчизняних виконавців!


Золотий реліз (завантажене не впливає на рейтинг)
 Трекер:    Зареєстрований   

Завантажити / скачати українську музику



відео для новачків



 Зареєстрований:   2010-04-03 10:16
 Розмір:   2.73 GB 
 Оцінка музики:   10/10 (Голосів: 22)
   
ssTAss 
Модератор музики


З нами з: 05.07.08
Востаннє: 11.12.16
Повідомлень: 10958

2010-04-03 00:53  
plyrvt написано:
Країна, місто: Україна, Київ

думаю краще написати Україна, Харків-Київ
plyrvt написано:
1997 - Знову люблю

1998.. з оф сайту (хоч і запис був можливо в 1997, але виданий в 98)
Цитата:
1998—видання CD «Знову люблю». Презентація диску відбулась у вигляді акустичного концерту в залі ікон та старовинної дерев”яної скульптурми Національного Художнього музею України.

в альбом
plyrvt написано:
2004 - Ми йдемо! Найкраще

входило ще 3 кліпи (немає у Вас?)
Цитата:
Кліпи:
Не бійся жити (кліп) avi [31 Mb]
Той, той (кліп) avi [26 Mb]
Чорні Черешні (кліп) avi [14 Mb]

plyrvt 
VIP


З нами з: 03.12.08
Востаннє: 09.12.16
Повідомлень: 398

2010-04-03 01:07  
Цитата:
1998.. з оф сайту (хоч і запис був можливо в 1997, але виданий в 98)

ззаду на обгортці є цифри 1997 і 1999, 1998 немає
back
в 1998 цей альбом на касеті випустила Nova records

оскільки це ріп не з касети а з CD, то вважаю доцільним вказувати або рік запису альбому, або рік мастерінгу на CD, не вказуючи рік мастерингу на Tape

кліпів немає

ssTAss 
Модератор музики


З нами з: 05.07.08
Востаннє: 11.12.16
Повідомлень: 10958

2010-04-03 01:25  
plyrvt написано:
ззаду на обгортці є цифри 1997 і 1999, 1998 немає

ну чого ж Ви так любите сперечатись, га?
дав Вам цитату з ОФ САЙТУ... запис відбувся в 1997 році, а видання (повторю ще раз, дууууже неуважні стали)
Цитата:
1998—видання CD «Знову люблю». Презентація диску відбулась у вигляді акустичного концерту в залі ікон та старовинної дерев”яної скульптурми Національного Художнього музею України.

де там про касету?
P.S. це не я собі так придумав, це на офіційному сайті написано

Додано через 1 хвилину 9 секунд:

ось тут

Tarasyk 
Відео Гуртом - фільмокрай
Відео Гуртом - фільмокрай


З нами з: 26.08.09
Востаннє: 10.12.16
Повідомлень: 5974

2010-04-03 11:34  
plyrvt написано:
6 альбомів, 1 збірка, 1 Live

6+1+1=8, а в описі і роздачі - 9 альбомів. plyrvt, просто помилилися, чи то я щось наплутав?

plyrvt 
VIP


З нами з: 03.12.08
Востаннє: 09.12.16
Повідомлень: 398

2010-04-03 12:29  
Всі побажання виправив.
Здається на CD більше альбомів не виходило, тому в контексті CD можна вважати дискографією.

rastamanoff 
Новенький


З нами з: 19.02.09
Востаннє: 24.11.16
Повідомлень: 12

2010-07-22 18:03  
Класна мадам , буду качати, і доречі всім рекомендую.RASTAMANOFFFFF
Бандуррра 
Частий відвідувач


З нами з: 07.01.14
Востаннє: 27.10.14
Повідомлень: 39

2014-10-02 23:17  
Жінка варта поваги! Слава Україні!
Klisan 
Новенький


З нами з: 22.11.09
Востаннє: 06.12.16
Повідомлень: 14

2014-10-09 19:52  
Буде альбом "Тінь по воді"?
Ваш часовий пояс: GMT + 2 Години

Нова тема   Відповісти