Завантажити та скачати торренти українською


VA - Корифеї українського вокального мистецтва (2005) [FLAC] | Folk / Vocal

Нові коментарі

Нова тема   Відповісти
Автор Повідомлення
Tarasyk 
Відео Гуртом - фільмокрай
Відео Гуртом - фільмокрай


З нами з: 26.08.09
Востаннє: 28.11.16
Повідомлень: 5972

2010-04-02 14:52  
VA - Корифеї українського вокального мистецтва (2005) [FLAC] | Folk / Vocal



Стиль: Folk, Vocal
Країна: Україна
Видавець: Comp music
Виконавці:
Дмитро Гнатюк, Костянтин Огнєвий, Марія Стефюк, Анатолій Солов’яненко
Пісні:
    01. Дмитро Гнатюк - Пісня про рушник
    02. Дмитро Гнатюк - Черемшина
    03. Дмитро Гнатюк - Моя стежина
    04. Дмитро Гнатюк - Два кольори
    05. Костянтин Огнєвий - Іду я росами
    06. Костянтин Огнєвий - Пісня про вчительку
    07. Костянтин Огнєвий - Чорнобривці
    08. Марія Стефюк - Така її доля
    09. Марія Стефюк - Ой, піду я меж гори
    10. Марія Стефюк - Віють вітри
    11. Марія Стефюк - Соловейко
    12. Анатолій Солов’яненко - Чорні брови, карі очі
    13. Анатолій Солов’яненко - Дивлюсь я на небо
    14. Анатолій Солов’яненко - Як ішов я з Дебречина
    15. Анатолій Солов’яненко - Чом, чом земле моя

Тривалість: 01:02:50
Мова: українська
Аудіо-кодек: FLAC
Бітрейт: ~718 кб/с
EAC log
Exact Audio Copy V0.99 prebeta 4 from 23. January 2008

EAC extraction logfile from 26. February 2010, 17:24

- / -

Used drive : SONY DVD RW DW-Q28A Adapter: 3 ID: 1

Read mode : Secure
Utilize accurate stream : Yes
Defeat audio cache : Yes
Make use of C2 pointers : No

Read offset correction : 12
Overread into Lead-In and Lead-Out : No
Fill up missing offset samples with silence : Yes
Delete leading and trailing silent blocks : No
Null samples used in CRC calculations : No
Used interface : Native Win32 interface for Win NT & 2000

Used output format : User Defined Encoder
Selected bitrate : 768 kBit/s
Quality : High
Add ID3 tag : No
Command line compressor : C:\Program Files\Exact Audio Copy\FLAC\FLAC.EXE
Additional command line options : -6 -V -T "ARTIST=%a" -T "TITLE=%t" -T "ALBUM=%g" -T "DATE=%y" -T "TRACKNUMBER=%n" -T "GENRE=%m" -T "COMMENT=%e" %s -o %d

TOC of the extracted CD

Track | Start | Length | Start sector | End sector
---------------------------------------------------------
1 | 0:00.00 | 4:54.41 | 0 | 22090
2 | 4:54.41 | 4:18.72 | 22091 | 41512
3 | 9:13.38 | 5:19.61 | 41513 | 65498
4 | 14:33.24 | 5:25.55 | 65499 | 89928
5 | 19:59.04 | 3:12.52 | 89929 | 104380
6 | 23:11.56 | 4:07.71 | 104381 | 122976
7 | 27:19.52 | 4:00.49 | 122977 | 141025
8 | 31:20.26 | 4:23.13 | 141026 | 160763
9 | 35:43.39 | 4:08.00 | 160764 | 179363
10 | 39:51.39 | 2:31.20 | 179364 | 190708
11 | 42:22.59 | 5:18.53 | 190709 | 214611
12 | 47:41.37 | 4:28.63 | 214612 | 234774
13 | 52:10.25 | 3:45.37 | 234775 | 251686
14 | 55:55.62 | 2:23.09 | 251687 | 262420
15 | 58:18.71 | 4:31.69 | 262421 | 282814

Range status and errors

Selected range

Filename D:\Для torrent\Maestros\CDImage.wav

Peak level 100.0 %
Range quality 100.0 %
Test CRC BEB591A3
Copy CRC BEB591A3
Copy OK

No errors occurred

End of status report
Джерело: + власноруч відредагував теги
Додаткова інформація:
Не завжди назва диску буває абсолютно правдивою. Але цього разу інша назва була б, мабуть, просто несправедливою. Дмитро Гнатюк, Костянтин Огнєвий, Марія Стеф’юк, Анатолій Солов’яненко – значення цих імен, цих людей, цих голосів для української культури важко, неможливо переоцінити. Я достеменно знаю, що можна не любити української естради – і, тим не менш, захоплюватися співом цих майстрів. Я певен, що можна поставити цей диск людині, яка ніколи не чула українського співу – і серце її затремтить і розкриється. За єдиної умови – що цій людині взагалі хоч трохи притаманне відчуття прекрасного. А ті, що знають – вони вже знають, що так чисто, сильно, глибоко, як ці четверо, співало і співає не так вже й багато людей, і не тільки в Україні. Спів цих людей вже давно не належить одній Україні – він належить світові. І світ від цього, я певен, стає кращим – щоразу, як їхні голоси звучать.
УМКА


Також на Толоці Ви можете завантажити цей альбом у lossy:
VA - Корифеї українського вокального мистецтва (2005) [MP3] | Folk / Vocal


Якщо Ви справді бажаєте підтримати українське - після прослуховування, якщо музика вам сподобалась, придбайте ліцензійний диск. Підтримаймо вітчизняних виконавців!


Срібний реліз (на рейтинг впливає 50% завантаженого)
 Трекер:    Зареєстрований   

Завантажити / скачати українську музику



відео для новачків



 Зареєстрований:   2010-04-02 14:52
 Розмір:   339 MB 
 Оцінка музики:   4.1/10 (Голосів: 19)
   
Ваш часовий пояс: GMT + 2 Години

Нова тема   Відповісти