Завантажити та скачати торренти українською


VA - Шедеври хорового мистецтва. Диригує Павло Муравський (2005) [APE] | Ethno / Folk

Нові коментарі

Нова тема   Відповісти
Автор Повідомлення
Tarasyk 
Відео Гуртом - фільмокрай
Відео Гуртом - фільмокрай


З нами з: 26.08.09
Востаннє: 28.11.16
Повідомлень: 5972

2010-03-18 14:31  
VA - Шедеври хорового мистецтва. Диригує Павло Муравський (2005) [APE] | Ethno / Folk



Стиль: Ethno, Folk
Країна: Україна
Видавець: Астра Рекордс
Виконавці:
Хор Київської державної консерваторії ім. П.І. Чайковського, Хор Національної музичної академії ім. П.І. Чайковського, Хор Українського радіо, Заслужена капела України "Трембіта", Хорова капела "Думка", П. Кармалюк, І. Козловський, Б. Руденко, Б. Гмиря, Л. Чконія, Д. Петриненко, С. Малиновський.

Пісні:
    01. Хор Київської державної консерваторії ім. П.І. Чайковського - Щедрик (1977)
    Українська народна пісня, музика: обр. М. Леонтович
    02. Хор Українського радіо - Стелися, барвінку (1985)
    Українська народна пісня, музика: обр. М. Лисенко
    03. Хор Київської державної консерваторії ім. П.І. Чайковського - Ой, устану я в понеділок (1977)
    Українська народна пісня, музика: обр. М. Леонтович
    04. Заслужена капела України "Трембіта", П. Кармалюк - Ой, ти, дівчино, з горіха зерня (1962)
    Музика: А. Кос-Анатольський, слова: І. Франко
    05. Хорова капела "Думка", І. Козловський - Ой, у полі криниченька (1965)
    Українська народна пісня
    06. Хорова капела "Думка", Б. Руденко - Соловейко (1966)
    Музика: М. Кропивницький, слова: М. Кропивницький
    07. Хорова капела "Думка", Б. Гмиря - Стоїть гора високая (1968)
    Українська народна пісня, музика: обр. В. Кирейко
    08. Хор Київської державної консерваторії ім. П.І. Чайковського - Неначе сон (1988)
    Українська народна пісня, музика: Г. Майборода
    09. Хор Київської державної консерваторії ім. П.І. Чайковського - Чернушко душко (1977)
    Українська народна пісня, музика: обр. М. Леонтович
    10. Заслужена капела України "Трембіта" - Буковинська полька (1957)
    Музика: Є. Козак, слова: І. Кутень
    11. Хор Київської державної консерваторії ім. П.І. Чайковського - Гра в зайчика (1977)
    Українська народна пісня, музика: обр. М. Леонтович
    12. Хор Національної музичної академії ім. П.І. Чайковського - Ой, сивая та і зозуленька (2001)
    Українська народна пісня, музика: обр. К. Стеценко
    13. Хорова капела "Думка", Л. Чконія - Ой, у полі, полі (1966)
    Українська народна пісня, музика: обр. П. Козицький
    14. Заслужена капела України "Трембіта" - Зоре моя вечірняя (1958)
    Українська народна пісня, музика: обр. М. Леонтович, слова: Т. Шевченко
    15. Хор Київської державної консерваторії ім. П.І. Чайковського, Д. Петриненко - Вечірня пісня (1982)
    Музика: К. Стеценко, слова: В. Самійленко
    16. Хор Київської державної консерваторії ім. П.І. Чайковського - Miserere (1979)
    Музика: А. Лотті
    17. Заслужена капела України "Трембіта" - Мрії (1960)
    Музика: Р. Шуман
    18. Хор Київської державної консерваторії ім. П.І. Чайковського - Праля (1977)
    Українська народна пісня, музика: обр. М. Леонтович
    19. Заслужена капела України "Трембіта", С. Малиновський - Вівці мої, вівці (1958)
    Українська народна пісня, музика: М. Гринишин
    20. Хор Київської державної консерваторії ім. П.І. Чайковського - Гарбуз білий качається (1987)
    Українська народна пісня, музика: обр. М. Лисенко
    21. Хор Українського радіо - Дударик (1985)
    Українська народна пісня, музика: обр. М. Леонтович
    22. Хор Національної музичної академії ім. П.І. Чайковського - Сусідка (2001)
    Українська народна пісня, музика: обр. Я. Яциневич
    23. Хор Київської державної консерваторії ім. П.І. Чайковського - Многая літа (1982)
    Музика: Д. Бортнянський

Тривалість: 01:19:55
Мова: українська
Аудіо-кодек: APE
Бітрейт: 520 кб/с
EAC log
Exact Audio Copy V0.99 prebeta 4 from 23. January 2008

Звіт EAC про видобування, котре виконане 28. травня 2008, 21:40

Pavlo Muravsky, Conductor (Ukraine) / Masterpieces of Choral Singing

Дисковод: SONY CD-RW CRX230E Adapter: 1 ID: 1

Режим читання : Точний
Використати точний потік : Так
Вимкнути аудіо кеш : Так
Застосувати мітки C2 : Ні

Корекція зміщення при читанні : 6
Екстрачитання областей Lead-in і Lead-out : Ні
Заповнення пропущених семплів тишею : Так
Видалення блоків з тишею на початку і кінці : Ні
При вирахуванні CRC використовувались нульові семпли : Так
Використаний інтерфейс : Встановлений зовнішній ASPI-інтерфейс

Застосований вихідний формат : Внутрішні WAV-операції
Формат семпла : 44.100 Гц; 16 біт; стерео

TOC видобутого CD

Трек | Старт | Довжина | Початковий сектор | Кінцевий сектор
------------------------------------------------------------------
1 | 0:00.00 | 1:32.20 | 0 | 6919
2 | 1:32.20 | 2:04.06 | 6920 | 16225
3 | 3:36.26 | 2:46.27 | 16226 | 28702
4 | 6:22.53 | 4:05.39 | 28703 | 47116
5 | 10:28.17 | 8:35.34 | 47117 | 85775
6 | 19:03.51 | 4:43.00 | 85776 | 107000
7 | 23:46.51 | 6:07.39 | 107001 | 134564
8 | 29:54.15 | 4:05.60 | 134565 | 152999
9 | 34:00.00 | 2:15.34 | 153000 | 163158
10 | 36:15.34 | 1:42.09 | 163159 | 170817
11 | 37:57.43 | 1:07.34 | 170818 | 175876
12 | 39:05.02 | 2:23.69 | 175877 | 186670
13 | 41:28.71 | 5:50.40 | 186671 | 212960
14 | 47:19.36 | 4:30.18 | 212961 | 233228
15 | 51:49.54 | 4:31.37 | 233229 | 253590
16 | 56:21.16 | 5:16.36 | 253591 | 277326
17 | 61:37.52 | 3:33.18 | 277327 | 293319
18 | 65:10.70 | 2:19.64 | 293320 | 303808
19 | 67:30.59 | 4:50.42 | 303809 | 325600
20 | 72:21.26 | 1:44.59 | 325601 | 333459
21 | 74:06.10 | 1:54.57 | 333460 | 342066
22 | 76:00.67 | 2:09.36 | 342067 | 351777
23 | 78:10.28 | 1:44.48 | 351778 | 359625

Статус діапазону і помилки

Обраний діапазон

Ім'я файлу E:\Lossless\Pavlo Muravsky - wav\Pavlo Muravsky, Conductor (Ukraine) - Masterpieces of Choral Singing.wav

Піковий рівень 98.0 %
Якість діапазону 99.9 %
CRC копії 17F715F8
Копіювання... OK

Помилки не траплялися

Кінець звіту
Джерело: + трохи попрацював над тегами
Додаткова інформація:
Уся ця збірка, усі представлені тут твори пов’язані з однією постаттю – мова йде про Павла Муравського. До речі, він і сьогодні, у свої 90 років, не шукає спокою, а наполегливо, самовіддано працює. І не сотні навіть, а тисячі професійних музикантів-хормейстерів, співаків, діячів культури називають себе його учнями – з гордістю. Так вже сталося, що саме ця людина керувала головними, найбільш помітними у масштабах держави хоровими колективами за останні, приблизно, півстоліття. І, як то кажуть, саме під її керуванням такі колективи, як "Трембіта", "Думка", хори Українського радіо та Київської консерваторії стали – кращими. Причому, майстерність цих хорів цілком можна порівнювати з академічними взірцями світової хорової музики – і саме завдяки Муравському. Тож, гадаю, кожен справжній прихильник хорового мистецтва з увагою поставиться до цього диску – і правильно зробить, це точно.
УМКА
Про Павла Муравського
Павло Іванович Муравський (Моравський) (6 грудня 1914) — український хоровий диригент, народний артист України, лауреат Шевченківської премії, професор Національної музичної академії імені П. І. Чайковського, почесний академік Академії мистецтв України.

Народився видатний хоровий диригент Павло Іванович в селі Дмитрашківка Вінницької області.

Закінчив Київську консерваторію у червні 1941 року. Творча діяльність Павла Муравського розпочалася на Далекому Сході, у створеному ним Червонофлотському ансамблі пісні й танцю Північної Тихоокеанської флотилії.

Після демобілізації за рекомендацією своїх учителів Л. М. Ревуцького та Г. Г. Верьовки Павло Муравський очолив львівський, тоді ще обласний хор «Трембіта», який через п'ять років переріс у Державну академічну хорову капелу. Під керуванням Павла Муравського «Трембіта» досить швидко стала в ряд кращих хорових колективів радянського Союзу. Паралельно, у 1949-1955 роках викладав у Львівській консерваторії.

З 1964 по 1969 рік Павло Муравський — художній керівник і головний диригент Державної заслуженої академічної хорової капели «Думка», в цей період одержав звання народного артиста УРСР. З 1969 очолює хор студентів диригентсько-хорового факультету Київської консерваторії (з 1971- професор). Під орудою П.Муравського студентський хор проводив гастрольну діяльність, здійснив низку записів хорової літератури, зокрема у 1977 році - 37 творів М.Леонтовича.

21 листопада 2009 року в селі Дмитрашківка було відкриття садиби-музею цій чудовій, надзвичайно щирій людині.
Вікіпедія
Також на Толоці Ви можете завантажити цей альбом у lossy:
VA - Шедеври хорового мистецтва. Диригує Павло Муравський (2005) [MP3] | Ethno / Folk


Якщо Ви справді бажаєте підтримати українське - після прослуховування, якщо музика вам сподобалась, придбайте ліцензійний диск. Підтримаймо вітчизняних виконавців!


Срібний реліз (на рейтинг впливає 50% завантаженого)
 Трекер:    Зареєстрований   

Завантажити / скачати українську музику



відео для новачків



 Зареєстрований:   2010-03-18 14:31
 Розмір:   300 MB 
 Оцінка музики:   3.9/10 (Голосів: 18)
   
kummk 
Новенький


З нами з: 21.09.14
Востаннє: 27.06.16
Повідомлень: 2

2014-10-10 17:01  
Pavlo Muravsky, Conductor (Ukraine) - Masterpieces of Choral Singing.cue


PERFORMER "Pavlo Muravsky, Conductor (Ukraine)"
TITLE "Masterpieces of Choral Singing"
FILE "Pavlo Muravsky, Conductor (Ukraine) - Masterpieces of Choral Singing.ape" WAVE
TRACK 01 AUDIO
TITLE "Щедрик"
PERFORMER "Хор Київської консерваторії"
INDEX 01 00:00:00
TRACK 02 AUDIO
TITLE "Стелися, барвінку"
PERFORMER "Хор Українського радіо"
INDEX 00 01:29:66
INDEX 01 01:32:20
TRACK 03 AUDIO
TITLE "Ой, устану я в понеділок"
PERFORMER "Хор Київської консерваторії"
INDEX 00 03:33:72
INDEX 01 03:36:26
TRACK 04 AUDIO
TITLE "Ой, ти, дівчино, з горіха зерня"
PERFORMER "П. Кармалюк, Заслужена капела України Трембіта"
INDEX 00 06:20:24
INDEX 01 06:22:53
TRACK 05 AUDIO
TITLE "Ой, у полі криниченька"
PERFORMER "Хорова капела Думка, Іван Козловський"
INDEX 00 10:25:63
INDEX 01 10:28:17
TRACK 06 AUDIO
TITLE "Соловейко"
PERFORMER "Хорова капела Думка, Б. Руденко"
INDEX 00 19:01:22
INDEX 01 19:03:51
TRACK 07 AUDIO
TITLE "Стоїть гора високая"
PERFORMER "Хорова капела Думка, Борис Гмиря"
INDEX 00 23:44:22
INDEX 01 23:46:51
TRACK 08 AUDIO
TITLE "Неначе сон"
PERFORMER "Хор Київської консерваторії"
INDEX 00 29:51:61
INDEX 01 29:54:15
TRACK 09 AUDIO
TITLE "Чернушко душко"
PERFORMER "Хор Київської консерваторії"
INDEX 00 33:57:46
INDEX 01 34:00:00
TRACK 10 AUDIO
TITLE "Буковинська полька"
PERFORMER "Заслужена капела України Трембіта"
INDEX 00 36:13:05
INDEX 01 36:15:34
TRACK 11 AUDIO
TITLE "Гра в зайчика"
PERFORMER "Хор Київської консерваторії"
INDEX 00 37:55:14
INDEX 01 37:57:43
TRACK 12 AUDIO
TITLE "Ой, сивая та і зозуленька"
PERFORMER "Хор Національної музичної академії"
INDEX 00 39:02:48
INDEX 01 39:05:02
TRACK 13 AUDIO
TITLE "Ой, у полі, полі"
PERFORMER "Хорова капела Думка, Л. Чконія"
INDEX 00 41:26:42
INDEX 01 41:28:71
TRACK 14 AUDIO
TITLE "Зоре моя вечірняя"
PERFORMER "Заслужена капела України Трембіта"
INDEX 00 47:17:07
INDEX 01 47:19:36
TRACK 15 AUDIO
TITLE "Вечірня пісня"
PERFORMER "Хор Київської консерваторії, Д. Петриненко"
INDEX 00 51:47:25
INDEX 01 51:49:54
TRACK 16 AUDIO
TITLE "Miserere"
PERFORMER "Хор Київської консерваторії"
INDEX 00 56:18:62
INDEX 01 56:21:16
TRACK 17 AUDIO
TITLE "Мрії"
PERFORMER "Заслужена капела України Трембіта"
INDEX 00 61:35:23
INDEX 01 61:37:52
TRACK 18 AUDIO
TITLE "Праля"
PERFORMER "Хор Київської консерваторії"
INDEX 00 65:08:41
INDEX 01 65:10:70
TRACK 19 AUDIO
TITLE "Вівці мої, вівці"
PERFORMER "Заслужена капела України Трембіта, С. Малиновський"
INDEX 00 67:28:30
INDEX 01 67:30:59
TRACK 20 AUDIO
TITLE "Гарбуз білий качається"
PERFORMER "Хор Київської консерваторії"
INDEX 00 72:18:72
INDEX 01 72:21:26
TRACK 21 AUDIO
FLAGS DCP
TITLE "Дударик"
PERFORMER "Хор Українського радіо"
INDEX 00 74:03:56
INDEX 01 74:06:10
TRACK 22 AUDIO
TITLE "Сусідка"
PERFORMER "Хор Національної музичної академії"
INDEX 00 75:58:38
INDEX 01 76:00:67
TRACK 23 AUDIO
TITLE "Многая літа"
PERFORMER "Хор Київської консерваторії"
INDEX 00 78:07:74
INDEX 01 78:10:28

Ваш часовий пояс: GMT + 2 Години

Нова тема   Відповісти