Завантажити та скачати торренти українською


Ігор Закус & Z-Band - Коломийки (2008) [FLAC] | Ethno Jazz

Нові коментарі

Нова тема   Відповісти
Останній раз роздавалося volyca (2016-12-08)
Автор Повідомлення
dzhola 
Частий відвідувач


З нами з: 07.09.09
Востаннє: 20.11.16
Повідомлень: 41

2010-03-14 12:57  
Ігор Закус & Z-Band - Коломийки (2008) [FLAC] | Ethno Jazz

Ігор Закус & Z-Band - Коломийки (2008) [FLAC] | Ethno Jazz

Стиль: Ethno Jazz
Країна: Україна
Сайти: Офіційний сайт
Видавець: Темпора
Виконавці:
Ігор Закус - бас-гітари: 4,5,6 струн, ладові та безладові
Мирон Блощичак - українські народні духові інструменти
Денніс Аду - труба
Дмитро "Бобін" Александров - тенор-саксофон
Родіон Іванов - клавішні, рояль
Олександр Павлов - гітари
Олександр Лебеденко - барабани
Пісні:
    1. Коломийки - українська народна пісня
    2. Ой Чий То Кінь Стоїть - українська народна пісня
    3. Чом Ти Не Прийшов - українська народна пісня
    4. Ой Сивая Зозуленька - українська народна пісня
    5. Черемшина - В. Михайлюк
    6. Гопак - український народний танець
    7. Ой У Полі Три Криниченьки - українська народна пісня
    8. Била Мене Мати - українська народна пісня
    9. Коломийки (Coda)

Тривалість: 00:52:07
Мова: без слів (інструментальна), частково українська (8)
Аудіо-кодек: FLAC
Бітрейт: 890 кб/с
Джерело: CD
Додаткова інформація:
"EAC сказав"

Exact Audio Copy V0.99 prebeta 5 from 4. May 2009

EAC extraction logfile from 8. March 2010, 22:38

Ігор Закус & Z-Band / Коломийки

Used drive : HL-DT-STDVDRAM GSA-T50L Adapter: 1 ID: 0

Read mode : Secure
Utilize accurate stream : Yes
Defeat audio cache : Yes
Make use of C2 pointers : No

Read offset correction : 667
Overread into Lead-In and Lead-Out : No
Fill up missing offset samples with silence : Yes
Delete leading and trailing silent blocks : No
Null samples used in CRC calculations : Yes
Used interface : Native Win32 interface for Win NT & 2000

Used output format : Internal WAV Routines
Sample format : 44.100 Hz; 16 Bit; Stereo

TOC of the extracted CD

Track | Start | Length | Start sector | End sector
---------------------------------------------------------
1 | 0:00.00 | 6:37.69 | 0 | 29843
2 | 6:37.69 | 6:07.01 | 29844 | 57369
3 | 12:44.70 | 4:58.09 | 57370 | 79728
4 | 17:43.04 | 5:44.21 | 79729 | 105549
5 | 23:27.25 | 6:52.39 | 105550 | 136488
6 | 30:19.64 | 7:27.52 | 136489 | 170065
7 | 37:47.41 | 5:39.18 | 170066 | 195508
8 | 43:26.59 | 5:32.44 | 195509 | 220452
9 | 48:59.28 | 3:10.67 | 220453 | 234769

Range status and errors

Selected range

Filename C:\Users\Tato\Downloads\Ihor Zakus & Z-Band\Ігор Закус & Z-Band - Коломийки.wav

Peak level 99.5 %
Range quality 100.0 %
Copy CRC 2205B975
Copy OK

No errors occurred

End of status report


Якщо Ви справді бажаєте підтримати українське - після прослуховування, якщо музика вам сподобалась, придбайте ліцензійний диск. Підтримаймо вітчизняних виконавців!


Срібний реліз (на рейтинг впливає 50% завантаженого)
 Трекер:    Зареєстрований   

Завантажити / скачати українську музику



відео для новачків



 Зареєстрований:   2010-03-14 12:57
 Розмір:   332 MB 
 Оцінка музики:   9.9/10 (Голосів: 12)
   
ssTAss 
Модератор музики


З нами з: 05.07.08
Востаннє: 08.12.16
Повідомлень: 10947

2010-03-15 09:42  
де обкладинка?
і заповніть стрічку "Джерело"

ssTAss 
Модератор музики


З нами з: 05.07.08
Востаннє: 08.12.16
Повідомлень: 10947

2010-03-16 15:05  
поставив обкладинку з оф сайту, як і сам оф сайт написав
маєте більшу обкладинку - прошу поставити

dzhola 
Частий відвідувач


З нами з: 07.09.09
Востаннє: 20.11.16
Повідомлень: 41

2010-03-20 13:42  
дякую!

нажаль, не маю Sad (1)

проте якщо "знайду" сканер - тоді поставлю Happy

ssTAss 
Модератор музики


З нами з: 05.07.08
Востаннє: 08.12.16
Повідомлень: 10947

2010-03-20 14:20  
гарний альбом... послухав із задоволенням..
от тільки де там Ви почули
dzhola написано:
Мова: українська

???
там ж всі композиції без слів... зараз виправлю

dzhola 
Частий відвідувач


З нами з: 07.09.09
Востаннє: 20.11.16
Повідомлень: 41

2010-04-16 16:43  
А "Била мене мати..." вони якою співають? Wink (1)
Nomad 
VIP


З нами з: 17.03.08
Востаннє: 08.02.12
Повідомлень: 513

2010-12-01 15:01  
В кого є його новий альбом "Українська басова пісня"?

Додано через 4 хвилини 52 секунди:

dzhola написано:

Повідомленнядодано: 2010-03-20 13:42
проте якщо "знайду" сканер - тоді поставлю Happy

може прискорите пошук сканера?

Yuri_R 
Новенький


З нами з: 13.02.12
Востаннє: 07.03.12
Повідомлень: 2

2012-02-17 20:20  
Дякую, чудовий альбом! Сусіди-москалі - теж "контетні" 8))) Бас - розкішний

ПС про картинки
Хлопці, елементарний пошук в Яндексі - http://b3.ac-images.myspacecdn.com/02116/37/58/2116848573_l.jpg
фотошопом збільшити на 120% досить безболісно, якщо 600х526 пікселів мало...

Чисто як діти...

ssTAss 
Модератор музики


З нами з: 05.07.08
Востаннє: 08.12.16
Повідомлень: 10947

2012-02-17 20:41  
Yuri_R написано:
Чисто як діти...

на момент створення релізу цієї обкладинки не було
тепер дякуємо Вам
але питання сканера не відпадає - хотілося б мати повний комплект сканів

Yuri_R 
Новенький


З нами з: 13.02.12
Востаннє: 07.03.12
Повідомлень: 2

2012-02-17 21:15  
Доберуся до "Горбушки"- якщо знайду диск, то будуть і скани 8)))
Ваш часовий пояс: GMT + 2 Години

Нова тема   Відповісти