Завантажити та скачати торренти українською


Maxima - Ми взірвемо світ любов'ю (2008) [FLAC] | Pop / Rock

Нові коментарі

Нова тема   Відповісти
Автор Повідомлення
dzhola 
Частий відвідувач


З нами з: 07.09.09
Востаннє: 20.11.16
Повідомлень: 41

2010-03-14 12:44  
Maxima - Ми взірвемо світ любов'ю (2008) [FLAC] | Pop / Rock



Стиль: Pop, Rock
Країна: Україна
Сайти: Офіційний сайт
Видавець: АСТРА РЕКОРДС
Виконавці:
Юлія Донченко - вокал, бек-вокал; Андрій Партика - програмування, гітара (2,3,4,7,8,11), акустична гітара (3,6,7,11,12); Віталій Телезин програмування, синтезатори, Rhodes (1), рояль (9), бас-гітара (11); Олег Яшник - додаткове програмування, гітара (1,2,6,7,8,9,12), акустична гітара (1,2,4,9); Дмитро Шуров - Rhodes (4,6); Макс Малишев - барабани (1,4,6,7,8,12); Олег Лохманюк бас-гітара (1,4,6,7,8,12); Олександр Береговський - перкусія (4); Жека Кобзарук - програмування, синтезатори (5); Андрій Алексєєв - гітара (5), Євген Major Філатов - скретчі (1); Петро Чернявський - гітара, акустична гітара (7); Київський Філармонійний Оркестр (2, 7, 10)
Пісні:
    1. Живі та здорові
    2. Ми взірвемо світ
    3. Зима, весна, літо, осінь
    4. У раю
    5. Сильніше звук
    6. Чотири стіни
    7. Золота й небесна жінка
    8. Дві душі
    9. Поцілуй мене ніжно
    10. Колискова
    11. Мій дім – моя фортеця
    12. Новорічна

Тривалість: 00:46:10
Мова: українська
Аудіо-кодек: FLAC
Бітрейт: 993 кб/с
Джерело: власний CD
Додаткова інформація:
Підспіви (та підтанцьовки Happy ) в Гадів в їхньому the best, як на мене, "Було не любити" - втеча з гітаристом Гадів Андрієм Партикою в Гавайські Гітари (в когось є лосслесс? Happy ) та свіжа реінкарнація в Maximi - це (поки-що) творчий шлях симатичної співачки, музИки, автора і "просто жінки" Happy Юлі Донченко.
"EAC повідомив"

Exact Audio Copy V0.99 prebeta 5 from 4. May 2009

EAC extraction logfile from 11. March 2010, 23:04

Maxima / Ми взірвемо світ любов'ю

Used drive : HL-DT-STDVDRAM GSA-T50L Adapter: 1 ID: 0

Read mode : Secure
Utilize accurate stream : Yes
Defeat audio cache : Yes
Make use of C2 pointers : No

Read offset correction : 667
Overread into Lead-In and Lead-Out : No
Fill up missing offset samples with silence : Yes
Delete leading and trailing silent blocks : No
Null samples used in CRC calculations : Yes
Used interface : Native Win32 interface for Win NT & 2000

Used output format : User Defined Encoder
Selected bitrate : 768 kBit/s
Quality : High

TOC of the extracted CD

Track | Start | Length | Start sector | End sector
---------------------------------------------------------
1 | 0:00.00 | 3:27.16 | 0 | 15540
2 | 3:27.16 | 3:39.21 | 15541 | 31986
3 | 7:06.37 | 3:00.19 | 31987 | 45505
4 | 10:06.56 | 3:53.70 | 45506 | 63050
5 | 14:00.51 | 3:58.28 | 63051 | 80928
6 | 17:59.04 | 4:39.00 | 80929 | 101853
7 | 22:38.04 | 3:43.49 | 101854 | 118627
8 | 26:21.53 | 3:48.30 | 118628 | 135757
9 | 30:10.08 | 4:09.39 | 135758 | 154471
10 | 34:19.47 | 2:57.49 | 154472 | 167795
11 | 37:17.21 | 3:21.21 | 167796 | 182891
12 | 40:38.42 | 2:36.06 | 182892 | 194597

Range status and errors

Selected range

Filename C:\Users\Tato\Downloads\Maxima - Ми взірвемо світ любов'ю\Maxima - Ми взірвемо світ любов'ю.wav

Peak level 100.0 %
Range quality 100.0 %
Copy CRC 15BA7664
Copy OK

No errors occurred

End of status report


Якщо Ви справді бажаєте підтримати українське - після прослуховування, якщо музика вам сподобалась, придбайте ліцензійний диск. Підтримаймо вітчизняних виконавців!


Срібний реліз (на рейтинг впливає 50% завантаженого)
 Трекер:    Зареєстрований   

Завантажити / скачати українську музику



відео для новачків



 Зареєстрований:   2010-03-14 12:44
 Розмір:   289 MB 
 Оцінка музики:   9.7/10 (Голосів: 14)
   
ssTAss 
Модератор музики


З нами з: 05.07.08
Востаннє: 03.12.16
Повідомлень: 10930

2010-03-15 09:37  
dzhola написано:
Джерело:

обов'язково заповнити стрічку

mr.killer 
Свій


З нами з: 11.08.10
Востаннє: 30.11.16
Повідомлень: 146

2016-08-09 19:32  
поділіться будь ласка сканами до цього диску
ssTAss 
Модератор музики


З нами з: 05.07.08
Востаннє: 03.12.16
Повідомлень: 10930

2016-08-09 20:01  
mr.killer
скани є тут http://toloka.to/t1896

Ваш часовий пояс: GMT + 2 Години

Нова тема   Відповісти