Завантажити та скачати торренти українською


ManSound | Дискографія [7 альбомів, 1 Live, 1 single] (1998-2008) [FLAC] | A Capella / Jazz

Нові коментарі

Нова тема   Відповісти
Автор Повідомлення
plyrvt 
VIP


З нами з: 03.12.08
Востаннє: 03.12.16
Повідомлень: 398

2010-03-12 20:17  
ManSound | Дискографія [7 альбомів, 1 Live, 1 single] (1998-2008) [FLAC] | A Capella / Jazz



Стиль: Jazz
Країна, місто: Україна, Київ
Сайти: Офіційний сайт

Видавець: Євро-Союз, ManSound, NowDisk, Rostok records, CompMusic, GoldenMusic
Виконавці:
Юрій Роменський, Сергій Харченко, Володимир Трач, Володимир Сухін — тенори
В'ячеслав Рубель — баритон
Рубен Толмачов — бас
Альбоми:
1998 - Intro (Tape)


01 - Молитва - 1:33
02 - Everything's Gonna Be Alright In Christ - 3:24
03 - Silent Night - 3:55
04 - Триптих - 4:53
05 - Glorify Thy Name - 3:25
06 - Полечко-Поле - 3:39
07 - And Can It Be - 3:48
08 - We Sing Allelyia - 4:00
09 - Слухай, Як Росте Трава - 4:41
10 - Love Is Love - 3:47
11 - Day Tripper - 2:04
12 - Java Jive - 2:24
13 - Купальська - 2:57
14 - Сходами Драбини На Дах - 4:18
15 - Tell Me Why - 2:46
16 - Love Is... - 4:05

Тривалість: 00:55:40
Видавець: Євро-Союз
Мова: українська (), англійська ()
Audiochecker Log
AUDIOCHECKER v2.0 beta (build 457) - by Dester - [email protected]
~~~~~~~~~~~~~~~~~~~~~~~~~~~~~~~~~~
-=== DO NOT EDIT THIS FILE! ===-

Path: ...\1998 - Intro

01 -=- 01 - Молитва.flac -=- CDDA (100%)
02 -=- 02 - Everything's Gonna Be Alright In Christ.flac -=- CDDA (100%)
03 -=- 03 - Silent Night.flac -=- CDDA (99%)
04 -=- 04 - Триптих.flac -=- CDDA (100%)
05 -=- 05 - Glorify Thy Name.flac -=- CDDA (100%)
06 -=- 06 - Полечко-Поле.flac -=- CDDA (100%)
07 -=- 07 - And Can It Be.flac -=- CDDA (100%)
08 -=- 08 - We Sing Allelyia.flac -=- CDDA (100%)
09 -=- 09 - Слухай, Як Росте Трава.flac -=- CDDA (100%)
10 -=- 10 - Love Is Love.flac -=- CDDA (100%)
11 -=- 11 - Day Tripper.flac -=- CDDA (100%)
12 -=- 12 - Java Jive.flac -=- CDDA (100%)
13 -=- 13 - Купальська.flac -=- CDDA (100%)
14 -=- 14 - Сходами Драбини На Дах.flac -=- CDDA (100%)
15 -=- 15 - Tell Me Why.flac -=- CDDA (100%)
16 -=- 16 - Love Is.flac -=- CDDA (100%)

Summary 99,94% CDDA

179807636
1999 - Live in Kiev's Jazz Club


01 - Hark!The Herald Angels Sing - 2:51
02 - O Come, All Ye Faithful - 2:29
03 - Who Is Gonna Tell The Child About Jesus - 2:43
04 - Day Tripper - 2:18
05 - Diptikh of Ukrainian folk songs - 3:52
06 - Oi, Polechko-pole - 4:01
07 - Triptikh of Ukrainian folk songs - 5:15
08 - Gold Mine - 2:52
09 - Confession - 2:26
10 - They Can Take That Away From Me - 3:54
11 - Mary - 3:41
12 - Nature Boy - 6:35
13 - Lullaby of Birdland - 3:36
14 - A Quiet Place - 2:44
15 - Java Jive - 3:04

Тривалість: 00:52:21
Видавець: ManSound
Мова: англійська
EAC Log
Exact Audio Copy V0.99 prebeta 4 from 23. January 2008

Отчёт EAC об извлечении, выполненном 24. июня 2008, 0:06

Mansound / Live in Kiev's Jazz Club

Дисковод: _NEC DVD_RW ND-4570A Adapter: 5 ID: 0

Режим чтения : Достоверность
Использование точного потока : Да
Отключение кэша аудио : Да
Использование указателей C2 : Нет

Коррекция смещения при чтении : 48
Способность читать области Lead-in и Lead-out : Нет
Заполнение пропущенных сэмплов тишиной : Да
Удаление блоков с тишиной в начале и конце : Нет
При вычислениях CRC использовались нулевые сэмплы : Да
Интерфейс : Установленный внешний ASPI-интерфейс

Выходной формат : Внутренние WAV-операции
Формат сэмплов : 44.100 Гц; 16 бит; стерео

TOC извлечённого CD

Трек | Старт | Длительность | Начальный сектор | Конечный сектор
---------------------------------------------------------------------
1 | 0:00.00 | 2:51.22 | 0 | 12846
2 | 2:51.22 | 2:29.35 | 12847 | 24056
3 | 5:20.57 | 2:42.40 | 24057 | 36246
4 | 8:03.22 | 2:17.64 | 36247 | 46585
5 | 10:21.11 | 3:51.58 | 46586 | 63968
6 | 14:12.69 | 4:00.38 | 63969 | 82006
7 | 18:13.32 | 5:15.16 | 82007 | 105647
8 | 23:28.48 | 2:52.21 | 105648 | 118568
9 | 26:20.69 | 2:26.05 | 118569 | 129523
10 | 28:46.74 | 3:53.61 | 129524 | 147059
11 | 32:40.60 | 3:41.18 | 147060 | 163652
12 | 36:22.03 | 6:35.27 | 163653 | 193304
13 | 42:57.30 | 3:36.03 | 193305 | 209507
14 | 46:33.33 | 2:44.17 | 209508 | 221824
15 | 49:17.50 | 3:03.55 | 221825 | 235604

Характеристики диапазона извлечения и сообщения об ошибках

Выбранный диапазон

Имя файла L:\ManSound\02. Mansound\Mansound - Live in Kiev's Jazz Club.wav

Пиковый уровень 100.0 %
Качество диапазона 100.0 %
CRC теста D47F2524
CRC копии D47F2524
Копирование... OK

Ошибок не произошло

AccurateRip: сводка

Трек 1 нет в базе данных
Трек 2 нет в базе данных
Трек 3 нет в базе данных
Трек 4 нет в базе данных
Трек 5 нет в базе данных
Трек 6 нет в базе данных
Трек 7 нет в базе данных
Трек 8 нет в базе данных
Трек 9 нет в базе данных
Трек 10 нет в базе данных
Трек 11 нет в базе данных
Трек 12 нет в базе данных
Трек 13 нет в базе данных
Трек 14 нет в базе данных
Трек 15 нет в базе данных

Ни одного трека нет в базе AccurateRip

Конец отчёта
Audiochecker Log
AUDIOCHECKER v2.0 beta (build 457) - by Dester - [email protected]
~~~~~~~~~~~~~~~~~~~~~~~~~~~~~~~~~~
-=== DO NOT EDIT THIS FILE! ===-

Path: ...\1999 - Live in Kiev's Jazz Club

01 -=- 01 - Hark!The Herald Angels Sing.wav -=- CDDA (100%)
02 -=- 02 - O Come, All Ye Faithful.wav -=- CDDA (100%)
03 -=- 03 - Who Is Gonna Tell The Child About Jesus.wav -=- CDDA (100%)
04 -=- 04 - Day Tripper.wav -=- CDDA (100%)
05 -=- 05 - Diptikh of Ukrainian folk songs.wav -=- CDDA (100%)
06 -=- 06 - Oi, Polechko-pole.wav -=- CDDA (100%)
07 -=- 07 - Triptikh of Ukrainian folk songs.wav -=- CDDA (100%)
08 -=- 08 - Gold Mine.wav -=- CDDA (100%)
09 -=- 09 - Confession.wav -=- CDDA (100%)
10 -=- 10 - They Can Take That Away From Me.wav -=- CDDA (100%)
11 -=- 11 - Mary.wav -=- CDDA (100%)
12 -=- 12 - Nature Boy.wav -=- CDDA (100%)
13 -=- 13 - Lullaby of Birdland.wav -=- CDDA (100%)
14 -=- 14 - A Quiet Place.wav -=- CDDA (99%)
15 -=- 15 - Java Jive.wav -=- CDDA (100%)

Summary 99,93% CDDA

1426852
2003 - Slavic Roots


01 - Triptych (Medley of Ukrainian Folk Songs) - 4:57
02 - Polechko-Pole (Ukrainian Folk Song) - 3:50
03 - Under The Cloud (Ukrainian Folk Song) - 3:50
04 - Hey, Let's Hoot (Russian Folk Song) - 5:54
05 - There You, Wide Steppe (Russian Folk Song) - 3:25
06 - Diptych (Medley of Ukrainian Folk Songs) - 3:55
07 - White Swallow (by I.Poklad) - 4:09

Тривалість: 00:30:00
Видавець: ManSound, NowDisk
Мова: українська
EAC Log
Exact Audio Copy V0.99 prebeta 4 from 23. January 2008

Отчёт EAC об извлечении, выполненном 24. июня 2008, 0:33

ManSound / Slavic Roots

Дисковод: _NEC DVD_RW ND-4570A Adapter: 5 ID: 0

Режим чтения : Достоверность
Использование точного потока : Да
Отключение кэша аудио : Да
Использование указателей C2 : Нет

Коррекция смещения при чтении : 48
Способность читать области Lead-in и Lead-out : Нет
Заполнение пропущенных сэмплов тишиной : Да
Удаление блоков с тишиной в начале и конце : Нет
При вычислениях CRC использовались нулевые сэмплы : Да
Интерфейс : Установленный внешний ASPI-интерфейс

Выходной формат : Внутренние WAV-операции
Формат сэмплов : 44.100 Гц; 16 бит; стерео

TOC извлечённого CD

Трек | Старт | Длительность | Начальный сектор | Конечный сектор
---------------------------------------------------------------------
1 | 0:00.00 | 4:56.40 | 0 | 22239
2 | 4:56.40 | 3:49.47 | 22240 | 39461
3 | 8:46.12 | 3:50.34 | 39462 | 56745
4 | 12:36.46 | 5:54.18 | 56746 | 83313
5 | 18:30.64 | 3:25.36 | 83314 | 98724
6 | 21:56.25 | 3:54.42 | 98725 | 116316
7 | 25:50.67 | 4:08.71 | 116317 | 134987

Характеристики диапазона извлечения и сообщения об ошибках

Выбранный диапазон

Имя файла L:\ManSound\03. Slavic Roots\ManSound - Slavic Roots.wav

Пиковый уровень 94.7 %
Качество диапазона 100.0 %
CRC теста 6F1506CF
CRC копии 6F1506CF
Копирование... OK

Ошибок не произошло

AccurateRip: сводка

Трек 1 точное извлечение (доверие 1) [44B6A78E]
Трек 2 точное извлечение (доверие 1) [458417FB]
Трек 3 точное извлечение (доверие 1) [3A725063]
Трек 4 точное извлечение (доверие 1) [5E7C88FC]
Трек 5 точное извлечение (доверие 1) [C9F3FBBA]
Трек 6 точное извлечение (доверие 1) [40347BF9]
Трек 7 точное извлечение (доверие 1) [0C4697E2]

Все треки извлечены точно

Конец отчёта
Audiochecker Log
AUDIOCHECKER v2.0 beta (build 457) - by Dester - [email protected]
~~~~~~~~~~~~~~~~~~~~~~~~~~~~~~~~~~
-=== DO NOT EDIT THIS FILE! ===-

Path: ...\2003 - Slavic Roots

01 -=- 01 - Triptych (Medley of Ukrainian Folk Songs).wav -=- CDDA (100%)
02 -=- 02 - Polechko-Pole (Ukrainian Folk Song).wav -=- CDDA (100%)
03 -=- 03 - Under The Cloud (Ukrainian Folk Song).wav -=- CDDA (100%)
04 -=- 04 - Hey, Let's Hoot (Russian Folk Song).wav -=- CDDA (100%)
05 -=- 05 - There You, Wide Steppe (Russian Folk Song).wav -=- CDDA (100%)
06 -=- 06 - Diptych (Medley of Ukrainian Folk Songs).wav -=- CDDA (100%)
07 -=- 07 - White Swallow (by I.Poklad).wav -=- CDDA (99%)

Summary 99,86% CDDA

167389460
2004 - If It's Magic


01 - Medley of George Benson's Songs #1 - 5:53
02 - They Can't Take That Away From Me - 3:31
03 - Nature Boy - 6:19
04 - Medley of George Benson's Songs #2 - 5:59
05 - Lallaby of Birdland - 4:14
06 - Angel Eyes - 2:51
07 - Medley of Steve Wonder's Songs (feat. Gaitana) - 8:42

Тривалість: 00:37:28
Видавець: Rostok records
Мова: англійська
EAC Log
Exact Audio Copy V0.99 prebeta 4 from 23. January 2008

Отчёт EAC об извлечении, выполненном 24. июня 2008, 0:52

ManSound / If It's Magic

Дисковод: _NEC DVD_RW ND-4570A Adapter: 5 ID: 0

Режим чтения : Достоверность
Использование точного потока : Да
Отключение кэша аудио : Да
Использование указателей C2 : Нет

Коррекция смещения при чтении : 48
Способность читать области Lead-in и Lead-out : Нет
Заполнение пропущенных сэмплов тишиной : Да
Удаление блоков с тишиной в начале и конце : Нет
При вычислениях CRC использовались нулевые сэмплы : Да
Интерфейс : Установленный внешний ASPI-интерфейс

Выходной формат : Внутренние WAV-операции
Формат сэмплов : 44.100 Гц; 16 бит; стерео

TOC извлечённого CD

Трек | Старт | Длительность | Начальный сектор | Конечный сектор
---------------------------------------------------------------------
1 | 0:00.00 | 5:53.11 | 0 | 26485
2 | 5:53.11 | 3:30.41 | 26486 | 42276
3 | 9:23.52 | 6:18.44 | 42277 | 70670
4 | 15:42.21 | 5:59.31 | 70671 | 97626
5 | 21:41.52 | 4:14.05 | 97627 | 116681
6 | 25:55.57 | 2:50.68 | 116682 | 129499
7 | 28:46.50 | 8:41.52 | 129500 | 168626

Характеристики диапазона извлечения и сообщения об ошибках

Выбранный диапазон

Имя файла L:\ManSound\04. If It's Magic\ManSound - If It's Magic.wav

Пиковый уровень 95.8 %
Качество диапазона 100.0 %
CRC теста 4F1CFE23
CRC копии 4F1CFE23
Копирование... OK

Ошибок не произошло

AccurateRip: сводка

Трек 1 точное извлечение (доверие 1) [112B67D6]
Трек 2 точное извлечение (доверие 1) [71DC3AD6]
Трек 3 точное извлечение (доверие 1) [F7359856]
Трек 4 точное извлечение (доверие 1) [0EC983EE]
Трек 5 точное извлечение (доверие 1) [F664B303]
Трек 6 точное извлечение (доверие 1) [0D27292E]
Трек 7 точное извлечение (доверие 1) [B992008C]

Все треки извлечены точно

Конец отчёта
Audiochecker Log
AUDIOCHECKER v2.0 beta (build 457) - by Dester - [email protected]
~~~~~~~~~~~~~~~~~~~~~~~~~~~~~~~~~~
-=== DO NOT EDIT THIS FILE! ===-

Path: ...\2004 - If It's Magic

01 -=- 01 - Medley of George Benson's Songs #1.wav -=- CDDA (100%)
02 -=- 02 - They Can't Take That Away From Me.wav -=- CDDA (100%)
03 -=- 03 - Nature Boy.wav -=- CDDA (100%)
04 -=- 04 - Medley of George Benson's Songs #2.wav -=- CDDA (100%)
05 -=- 05 - Lallaby of Birdland.wav -=- CDDA (100%)
06 -=- 06 - Angel Eyes.wav -=- CDDA (100%)
07 -=- 07 - Medley of Steve Wonder's Songs (feat. Gaitana).wav -=- CDDA (100%)

Summary 100,00% CDDA

80641636
2005 - Joy to the World


01 - Joy to the World - 2:15
02 - Jingle Bells - 2:48
03 - Santa Baby - 3:23
04 - Shchedryk - 3:36
05 - Nebo i zemle - 3:41
06 - Amazing Grace - 4:35
07 - White Christmas - 2:57
08 - Silent Night - 3:57
09 - The Message - 1:11
10 - People Needs the Lord - 4:31
11 - Great Is Thy Faithfulness - 4:36

Тривалість: 00:37:30
Видавець: Rostok records
Мова: англійська
EAC Log
Exact Audio Copy V0.99 prebeta 4 from 23. January 2008

Отчёт EAC об извлечении, выполненном 24. июня 2008, 16:23

ManSound / Joy to the World

Дисковод: _NEC DVD_RW ND-4570A Adapter: 5 ID: 0

Режим чтения : Достоверность
Использование точного потока : Да
Отключение кэша аудио : Да
Использование указателей C2 : Нет

Коррекция смещения при чтении : 48
Способность читать области Lead-in и Lead-out : Нет
Заполнение пропущенных сэмплов тишиной : Да
Удаление блоков с тишиной в начале и конце : Нет
При вычислениях CRC использовались нулевые сэмплы : Да
Интерфейс : Установленный внешний ASPI-интерфейс

Выходной формат : Внутренние WAV-операции
Формат сэмплов : 44.100 Гц; 16 бит; стерео

TOC извлечённого CD

Трек | Старт | Длительность | Начальный сектор | Конечный сектор
---------------------------------------------------------------------
1 | 0:00.00 | 2:14.74 | 0 | 10123
2 | 2:14.74 | 2:48.05 | 10124 | 22728
3 | 5:03.04 | 3:23.36 | 22729 | 37989
4 | 8:26.40 | 3:35.49 | 37990 | 54163
5 | 12:02.14 | 3:40.64 | 54164 | 70727
6 | 15:43.03 | 4:35.16 | 70728 | 91368
7 | 20:18.19 | 2:56.62 | 91369 | 104630
8 | 23:15.06 | 3:56.62 | 104631 | 122392
9 | 27:11.68 | 1:11.02 | 122393 | 127719
10 | 28:22.70 | 4:31.14 | 127720 | 148058
11 | 32:54.09 | 4:35.67 | 148059 | 168750

Характеристики диапазона извлечения и сообщения об ошибках

Выбранный диапазон

Имя файла M:\ManSound\05. Joy To The World\ManSound - Joy to the World.wav

Пиковый уровень 97.7 %
Качество диапазона 100.0 %
CRC теста 8CDD2815
CRC копии 8CDD2815
Копирование... OK

Ошибок не произошло

AccurateRip: сводка

Трек 1 нет в базе данных
Трек 2 нет в базе данных
Трек 3 нет в базе данных
Трек 4 нет в базе данных
Трек 5 нет в базе данных
Трек 6 нет в базе данных
Трек 7 нет в базе данных
Трек 8 нет в базе данных
Трек 9 нет в базе данных
Трек 10 нет в базе данных
Трек 11 нет в базе данных

Ни одного трека нет в базе AccurateRip

Конец отчёта
Audiochecker Log
AUDIOCHECKER v2.0 beta (build 457) - by Dester - [email protected]
~~~~~~~~~~~~~~~~~~~~~~~~~~~~~~~~~~
-=== DO NOT EDIT THIS FILE! ===-

Path: ...\2005 - Joy to the World

01 -=- 01 - Joy to the World.wav -=- CDDA (100%)
02 -=- 02 - Jingle Bells.wav -=- CDDA (100%)
03 -=- 03 - Santa Baby.wav -=- CDDA (100%)
04 -=- 04 - Shchedryk.wav -=- CDDA (100%)
05 -=- 05 - Nebo i zemle.wav -=- CDDA (100%)
06 -=- 06 - Amazing Grace.wav -=- CDDA (100%)
07 -=- 07 - White Christmas.wav -=- CDDA (100%)
08 -=- 08 - Silent Night.wav -=- CDDA (100%)
09 -=- 09 - The Message.wav -=- CDDA (100%)
10 -=- 10 - People Needs the Lord.wav -=- CDDA (99%)
11 -=- 11 - Great Is Thy Faithfulness.wav -=- CDDA (100%)

Summary 99,91% CDDA

126764116
Data
Дані взяті з перевидання 18.12.2006 CompMusic/EMI
Photo
50 фотографій JPEG 902*598 від 11.07.2006 зі зйомок кліпа в парку "Софіївка" (Умань)
Video
Якість:
кодек: IV41 = Intel Indeo R4.1
розмір кадру: 720*576 (4:3)
бітрейт відео 7735 кбіт/сек

Аудіо: мова: українська
кодек: PCM, 44100 кГц
бітрейт: 1411 кбіт/сек

Schedryk.avi (Тривалість: 00:03:34)


2005 - Во имя жизни


01 - Реквием памяти ушедших музыкантов - 3:53
02 - Колыбельная - 2:45
03 - Уявлю, ніби я - 4:07
04 - The Way We Want It - 4:40
05 - Сива ластівко - 4:09
06 - Зелений дубочку - 4:54
07 - Чом ти не прийшов - 4:51
08 - Friends forever - 0:29
09 - Что в твоем имени - 3:51
10 - Rainbow - 3:39
11 - Close to You - 5:04
12 - Tell Me Why - 2:54
13 - Zanzibar-Mama - 4:42
14 - Одиночество - 4:38

Тривалість: 00:54:35
Видавець: Rostok records
Мова: україснька (), російська (), англійська ()
EAC Log
Exact Audio Copy V0.99 prebeta 4 from 23. January 2008

Отчёт EAC об извлечении, выполненном 18. ноября 2008, 2:43

Unknown Artist / Unknown Title

Дисковод: Optiarc DVD RW AD-7203S Adapter: 4 ID: 0

Режим чтения : Достоверность
Использование точного потока : Да
Отключение кэша аудио : Да
Использование указателей C2 : Нет

Коррекция смещения при чтении : 48
Способность читать области Lead-in и Lead-out : Нет
Заполнение пропущенных сэмплов тишиной : Да
Удаление блоков с тишиной в начале и конце : Нет
При вычислениях CRC использовались нулевые сэмплы : Да
Интерфейс : Установленный внешний ASPI-интерфейс

Выходной формат : Внутренние WAV-операции
Формат сэмплов : 44.100 Гц; 16 бит; стерео

TOC извлечённого CD

Трек | Старт | Длительность | Начальный сектор | Конечный сектор
---------------------------------------------------------------------
1 | 0:00.00 | 3:52.46 | 0 | 17445
2 | 3:52.46 | 2:44.74 | 17446 | 29819
3 | 6:37.45 | 4:07.16 | 29820 | 48360
4 | 10:44.61 | 4:40.23 | 48361 | 69383
5 | 15:25.09 | 4:08.49 | 69384 | 88032
6 | 19:33.58 | 4:53.61 | 88033 | 110068
7 | 24:27.44 | 4:51.34 | 110069 | 131927
8 | 29:19.03 | 0:29.24 | 131928 | 134126
9 | 29:48.27 | 3:51.13 | 134127 | 151464
10 | 33:39.40 | 3:38.56 | 151465 | 167870
11 | 37:18.21 | 5:03.39 | 167871 | 190634
12 | 42:21.60 | 2:53.54 | 190635 | 203663
13 | 45:15.39 | 4:41.72 | 203664 | 224810
14 | 49:57.36 | 4:37.71 | 224811 | 245656

Характеристики диапазона извлечения и сообщения об ошибках

Выбранный диапазон

Имя файла G:\Music\Во имя жизни\Unknown Artist - Unknown Title.wav

Пиковый уровень 97.7 %
Качество диапазона 100.0 %
CRC теста B857B130
CRC копии B857B130
Копирование... OK

Ошибок не произошло

Конец отчёта
Audiochecker Log
AUDIOCHECKER v2.0 beta (build 457) - by Dester - [email protected]
~~~~~~~~~~~~~~~~~~~~~~~~~~~~~~~~~~
-=== DO NOT EDIT THIS FILE! ===-

Path: ...\2005 - Во имя жизни

01 -=- 01 - Реквием памяти ушедших музыкантов.wav -=- CDDA (100%)
02 -=- 02 - Колыбельная.wav -=- CDDA (100%)
03 -=- 03 - Уявлю, ніби я.wav -=- CDDA (100%)
04 -=- 04 - The Way We Want It.wav -=- CDDA (100%)
05 -=- 05 - Сива ластівко.wav -=- CDDA (100%)
06 -=- 06 - Зелений дубочку.wav -=- CDDA (100%)
07 -=- 07 - Чом ти не прийшов.wav -=- CDDA (100%)
08 -=- 08 - Friends forever.wav -=- CDDA (100%)
09 -=- 09 - Что в твоем имени.wav -=- CDDA (100%)
10 -=- 10 - Rainbow.wav -=- CDDA (100%)
11 -=- 11 - Close to You.wav -=- CDDA (100%)
12 -=- 12 - Tell Me Why.wav -=- CDDA (99%)
13 -=- 13 - Zanzibar-Mama.wav -=- CDDA (100%)
14 -=- 14 - Одиночество.wav -=- CDDA (100%)

Summary 99,93% CDDA

105759876
2006 - Гімн України (single)


01 - Гімн України (акапельна версія) - 4:38
02 - Гімн України (інструментальна версія) - 4:50
03 - Гімн України (версія караоке) - 4:49

Тривалість: 00:14:17
Видавець: CompMusic
Мова: українська
EAC Log
Exact Audio Copy V0.99 prebeta 4 from 23. January 2008

Отчёт EAC об извлечении, выполненном 24. июня 2008, 15:15

Unknown Artist / Unknown Title

Дисковод: _NEC DVD_RW ND-4570A Adapter: 5 ID: 0

Режим чтения : Достоверность
Использование точного потока : Да
Отключение кэша аудио : Да
Использование указателей C2 : Нет

Коррекция смещения при чтении : 48
Способность читать области Lead-in и Lead-out : Нет
Заполнение пропущенных сэмплов тишиной : Да
Удаление блоков с тишиной в начале и конце : Нет
При вычислениях CRC использовались нулевые сэмплы : Да
Интерфейс : Установленный внешний ASPI-интерфейс

Выходной формат : Внутренние WAV-операции
Формат сэмплов : 44.100 Гц; 16 бит; стерео

TOC извлечённого CD

Трек | Старт | Длительность | Начальный сектор | Конечный сектор
---------------------------------------------------------------------
1 | 0:00.00 | 4:37.50 | 0 | 20824
2 | 4:37.50 | 4:50.32 | 20825 | 42606
3 | 9:28.07 | 4:48.51 | 42607 | 64257

Характеристики диапазона извлечения и сообщения об ошибках

Выбранный диапазон

Имя файла M:\ManSound\07. Гімн України\Unknown Artist - Unknown Title.wav

Пиковый уровень 100.0 %
Качество диапазона 100.0 %
CRC теста A85D4DA0
CRC копии A85D4DA0
Копирование... OK

Ошибок не произошло

AccurateRip: сводка

Трек 1 нет в базе данных
Трек 2 нет в базе данных
Трек 3 нет в базе данных

Ни одного трека нет в базе AccurateRip

Конец отчёта
Audiochecker Log
AUDIOCHECKER v2.0 beta (build 457) - by Dester - [email protected]
~~~~~~~~~~~~~~~~~~~~~~~~~~~~~~~~~~
-=== DO NOT EDIT THIS FILE! ===-

Path: ...\2006 - Гімн України

01 -=- 01 - Гімн України (акапельна версія).wav -=- CDDA (100%)
02 -=- 02 - Гімн України (інструментальна версія).wav -=- CDDA (100%)
03 -=- 03 - Гімн України (версія караоке).wav -=- CDDA (99%)

Summary 99,67% CDDA

217535124
2007 - Під облачком


01 - Дунаю-Дунаю - 3:14
02 - Колечко - 1:36
03 - А в тому саду - 2:15
04 - Зелений дубочку - 4:54
05 - Під облачком - 3:49
06 - Ой, там у Львові - 2:28
07 - Люляй, мій синочку - 3:25
08 - Слала зіронька - 4:06
09 - Сива зозуленько - 3:48
10 - Летить галка - 4:00

Тривалість: 00:33:35
Видавець: GoldenMusic
Мова: українська
EAC Log
Exact Audio Copy V0.99 prebeta 4 from 23. January 2008

Отчёт EAC об извлечении, выполненном 29. мая 2008, 1:37

ManSound & Oksana Bilozir / Під облачком

Дисковод: _NEC DVD_RW ND-4570A Adapter: 5 ID: 0

Режим чтения : Достоверность
Использование точного потока : Да
Отключение кэша аудио : Да
Использование указателей C2 : Нет

Коррекция смещения при чтении : 48
Способность читать области Lead-in и Lead-out : Нет
Заполнение пропущенных сэмплов тишиной : Да
Удаление блоков с тишиной в начале и конце : Нет
При вычислениях CRC использовались нулевые сэмплы : Да
Интерфейс : Установленный внешний ASPI-интерфейс

Выходной формат : Внутренние WAV-операции
Формат сэмплов : 44.100 Гц; 16 бит; стерео

TOC извлечённого CD

Трек | Старт | Длительность | Начальный сектор | Конечный сектор
---------------------------------------------------------------------
1 | 0:00.00 | 3:14.06 | 0 | 14555
2 | 3:14.06 | 1:35.73 | 14556 | 21753
3 | 4:50.04 | 2:14.60 | 21754 | 31863
4 | 7:04.64 | 4:54.16 | 31864 | 53929
5 | 11:59.05 | 3:49.32 | 53930 | 71136
6 | 15:48.37 | 2:27.42 | 71137 | 82203
7 | 18:16.04 | 3:24.74 | 82204 | 97577
8 | 21:41.03 | 4:06.29 | 97578 | 116056
9 | 25:47.32 | 3:48.30 | 116057 | 133186
10 | 29:35.62 | 3:59.40 | 133187 | 151151

Характеристики диапазона извлечения и сообщения об ошибках

Выбранный диапазон

Имя файла I:\Оксана Білозір та ManSound - Під облачком\ManSound & Oksana Bilozir - Під облачком.wav

Пиковый уровень 100.0 %
Качество диапазона 99.9 %
CRC теста 3CABCA77
CRC копии 3CABCA77
Копирование... OK

Ошибок не произошло

AccurateRip: сводка

Трек 1 нет в базе данных
Трек 2 нет в базе данных
Трек 3 нет в базе данных
Трек 4 нет в базе данных
Трек 5 нет в базе данных
Трек 6 нет в базе данных
Трек 7 нет в базе данных
Трек 8 нет в базе данных
Трек 9 нет в базе данных
Трек 10 нет в базе данных

Ни одного трека нет в базе AccurateRip

Конец отчёта
Audiochecker Log
AUDIOCHECKER v2.0 beta (build 457) - by Dester - [email protected]
~~~~~~~~~~~~~~~~~~~~~~~~~~~~~~~~~~
-=== DO NOT EDIT THIS FILE! ===-

Path: ...\2007 - Під облачком

01 -=- 01 - Дунаю-Дунаю.wav -=- CDDA (100%)
02 -=- 02 - Колечко.wav -=- CDDA (100%)
03 -=- 03 - А в тому саду.wav -=- CDDA (100%)
04 -=- 04 - Зелений дубочку.wav -=- CDDA (100%)
05 -=- 05 - Під облачком.wav -=- CDDA (99%)
06 -=- 06 - Ой, там у Львові.wav -=- CDDA (99%)
07 -=- 07 - Люляй, мій синочку.wav -=- CDDA (100%)
08 -=- 08 - Слала зіронька.wav -=- CDDA (99%)
09 -=- 09 - Сива зозуленько.wav -=- CDDA (100%)
10 -=- 10 - Летить галка.wav -=- CDDA (100%)

Summary 99,70% CDDA

117836052
2008 - Voyage


01 - Mas Que Nada (Бразилія) - 4:49
02 - Crazy Little Thing Called Love (Великобританія) - 3:02
03 - How Deep is Your Love (Австралія) - 5:00
04 - Spain (I Can Recall) (Іспанія) - 7:32
05 - Air on G string (Німеччина) - 3:24
06 - Les Moulins De Mon Coeur (The Windmills of Your Mind) (Франція) - 3:56
07 - Beyond the Sea (США) - 4:06
08 - Yiddishe Mamme / Hava Nagila (Ізраїль) - 7:16
09 - Tetri Rashi (Грузія) - 4:15
10 - Amore No / Non Voglio Mica La Luna / Susanna (Італія) - 6:02
11 - Labi saju (Естонія) - 2:15
12 - Черный кот / Песенка шофера / Эй, моряк (Росія) - 2:53
13 - Не метелиця лугом стелиться (Україна) - 5:13
14 - Зачарованная моя (Білорусь) - 4:08
15 - Червона рута (Україна) - 3:37
16 - Con Te Partiro (Time To Say Goodbye) - 4:09

Тривалість: 01:11:37
Видавець: CompMusic
Мова: кожна пісня - мова відповідної країни
EAC Log
Exact Audio Copy V0.99 prebeta 4 from 23. January 2008

Отчёт EAC об извлечении, выполненном 30. ноября 2008, 23:08

Unknown Artist / Unknown Title

Дисковод: Optiarc DVD RW AD-7203S Adapter: 4 ID: 0

Режим чтения : Достоверность
Использование точного потока : Да
Отключение кэша аудио : Да
Использование указателей C2 : Нет

Коррекция смещения при чтении : 48
Способность читать области Lead-in и Lead-out : Нет
Заполнение пропущенных сэмплов тишиной : Да
Удаление блоков с тишиной в начале и конце : Нет
При вычислениях CRC использовались нулевые сэмплы : Да
Интерфейс : Установленный внешний ASPI-интерфейс

Выходной формат : Внутренние WAV-операции
Формат сэмплов : 44.100 Гц; 16 бит; стерео

TOC извлечённого CD

Трек | Старт | Длительность | Начальный сектор | Конечный сектор
---------------------------------------------------------------------
1 | 0:00.00 | 4:48.44 | 0 | 21643
2 | 4:48.44 | 3:02.00 | 21644 | 35293
3 | 7:50.44 | 5:00.14 | 35294 | 57807
4 | 12:50.58 | 7:32.04 | 57808 | 91711
5 | 20:22.62 | 3:23.70 | 91712 | 107006
6 | 23:46.57 | 3:56.00 | 107007 | 124706
7 | 27:42.57 | 4:05.51 | 124707 | 143132
8 | 31:48.33 | 7:16.06 | 143133 | 175838
9 | 39:04.39 | 4:15.11 | 175839 | 194974
10 | 43:19.50 | 6:01.61 | 194975 | 222110
11 | 49:21.36 | 2:15.34 | 222111 | 232269
12 | 51:36.70 | 2:52.72 | 232270 | 245241
13 | 54:29.67 | 5:13.15 | 245242 | 268731
14 | 59:43.07 | 4:07.69 | 268732 | 287325
15 | 63:51.01 | 3:36.72 | 287326 | 303597
16 | 67:27.73 | 4:09.09 | 303598 | 322281

Характеристики диапазона извлечения и сообщения об ошибках

Выбранный диапазон

Имя файла G:\ManSound - Voyage\Unknown Artist - Unknown Title.wav

Пиковый уровень 97.7 %
Качество диапазона 100.0 %
CRC теста B2789D11
CRC копии B2789D11
Копирование... OK

Ошибок не произошло

Конец отчёта
Audiochecker Log
AUDIOCHECKER v2.0 beta (build 457) - by Dester - [email protected]
~~~~~~~~~~~~~~~~~~~~~~~~~~~~~~~~~~
-=== DO NOT EDIT THIS FILE! ===-

Path: ...\2008 - Voyage

01 -=- 01 - Mas Que Nada (Бразилія).wav -=- CDDA (100%)
02 -=- 02 - Crazy Little Thing Called Love (Великобританія).wav -=- CDDA (100%)
03 -=- 03 - How Deep is Your Love (Австралія).wav -=- CDDA (100%)
04 -=- 04 - Spain (I Can Recall) (Іспанія).wav -=- CDDA (100%)
05 -=- 05 - Air on G string (Німеччина).wav -=- CDDA (100%)
06 -=- 06 - Les Moulins De Mon Coeur (The Windmills of Your Mind) (Франція).wav -=- CDDA (100%)
07 -=- 07 - Beyond the Sea (США).wav -=- CDDA (100%)
08 -=- 08 - Yiddishe Mamme _ Hava Nagila (Ізраїль).wav -=- CDDA (100%)
09 -=- 09 - Tetri Rashi (Грузія).wav -=- CDDA (100%)
10 -=- 10 - Amore No _ Non Voglio Mica La Luna _ Susanna (Італія).wav -=- CDDA (99%)
11 -=- 11 - Labi saju (Естонія).wav -=- CDDA (99%)
12 -=- 12 - Черный кот _ Песенка шофера _ Эй, моряк (Росія).wav -=- CDDA (100%)
13 -=- 13 - Не метелиця лугом стелиться (Україна).wav -=- CDDA (100%)
14 -=- 14 - Зачарованная моя (Білорусь).wav -=- CDDA (100%)
15 -=- 15 - Червона рута (Україна).wav -=- CDDA (100%)
16 -=- 16 - Con Te Partiro (Time To Say Goodbye).wav -=- CDDA (100%)

Summary 99,88% CDDA

233176180
Тривалість: 06:27:04
Мова: українська, англійська
Аудіо-кодек: FLAC
Бітрейт: lossless (~790-992 кбіт/сек)
Джерело: vitak21
Про гурт
ManSound — вокальний секстет, заснований 1994 року. Ця унікальна формація налічує тринадцятий рік свого існування. Група брала участь у понад 50 джазових фестивалях, вони тричі виступали на фестивалі Лайонелла Хемптона у США. All American Entertainment Awards номінувала ManSound у 2001 році на звання найкращої вокальної групи. 2002-го ManSound завоював Гран-прі на міжнародному конкурсі акапельних груп Vokal Total. 2004 року Всесвітня акапельна асоціація (CASA) визнала відомий джазовий стандарт Nature boy в аранжуванні Володимира Міхновецького найкращим у світі вокальним виконанням у стилі джаз.
Якщо Ви справді бажаєте підтримати українське - після прослуховування, якщо музика вам сподобалась, придбайте ліцензійний диск.
Підтримаймо вітчизняних виконавців!


Золотий реліз (завантажене не впливає на рейтинг)
 Трекер:    Зареєстрований   

Завантажити / скачати українську музику



відео для новачків



 Зареєстрований:   2010-03-12 20:17
 Розмір:   2.7 GB 
 Оцінка музики:   9.8/10 (Голосів: 23)
   
yabu 
Свій


З нами з: 23.05.08
Востаннє: 21.11.16
Повідомлень: 91

2010-12-22 10:27  
дякую за реліз. недавно слухав Менсаунд на концерті - молодці - тримають марку. Звичайно пішли у фрістайл музики - у джаз, але працюють з дуже цікавими композиціями... Мені сподобалося!
babin 
Новенький


З нами з: 27.04.12
Востаннє: 13.12.15
Повідомлень: 5

2015-11-28 12:08  
Станьте хтось на роздачу будь ласка.
Ваш часовий пояс: GMT + 2 Години

Нова тема   Відповісти