Завантажити та скачати торренти українською


Віталій Козловський | Дискографія [4 альбоми] (2005-2009) [FLAC] | Pop

Нові коментарі

Нова тема   Відповісти
Останній раз роздавалося plyrvt (2016-11-29)
Автор Повідомлення
plyrvt 
VIP


З нами з: 03.12.08
Востаннє: 03.12.16
Повідомлень: 398

2010-03-06 16:48  
Віталій Козловський | Дискографія [4 альбоми] (2005-2009) [FLAC] | Pop



Стиль: Pop
Країна, місто: Україна, Львів
Сайти: Офіційний сайт
Видавець: Lavina, CompMusic, Moon records
Виконавці:
Віталій Козловський
Альбоми:
2005 - Холодная ночь


01 - Холодная ночь - 3:48
02 - Шекспир - 3:37
03 - Жовтий лист - 3:35
04 - Цепочка - 3:10
05 - Comme toi - 4:23
06 - Скажи менi (Може любов) - 3:36
07 - Сладко - 4:40
08 - Вернись iз спогадiв - 3:33
09 - Секрет - 3:32
10 - Вiдправила месседж - 3:49
11 - Чорнобривцi - 4:55

Тривалість: 00:42:38
Видавець: Lavina Music
Мова: українська (03, 05-06, 08, 10-11), російська (01-02, 07, 09)
EAC Log
Exact Audio Copy V0.99 prebeta 4 from 23. January 2008

Отчёт EAC об извлечении, выполненном 9. января 2009, 2:15

Виталий Козловский / Холодная ночь

Дисковод: _NEC CD-RW NR-9400A Adapter: 3 ID: 0

Режим чтения : Достоверность
Использование точного потока : Да
Отключение кэша аудио : Да
Использование указателей C2 : Нет

Коррекция смещения при чтении : 145
Способность читать области Lead-in и Lead-out : Нет
Заполнение пропущенных сэмплов тишиной : Да
Удаление блоков с тишиной в начале и конце : Нет
При вычислениях CRC использовались нулевые сэмплы : Да
Интерфейс : Установленный внешний ASPI-интерфейс

Выходной формат : Внутренние WAV-операции
Формат сэмплов : 44.100 Гц; 16 бит; стерео

TOC извлечённого CD

Трек | Старт | Длительность | Начальный сектор | Конечный сектор
---------------------------------------------------------------------
1 | 0:00.00 | 3:48.00 | 0 | 17099
2 | 3:48.00 | 3:36.42 | 17100 | 33341
3 | 7:24.42 | 3:35.07 | 33342 | 49473
4 | 10:59.49 | 3:09.40 | 49474 | 63688
5 | 14:09.14 | 4:23.24 | 63689 | 83437
6 | 18:32.38 | 3:36.28 | 83438 | 99665
7 | 22:08.66 | 4:40.26 | 99666 | 120691
8 | 26:49.17 | 3:33.20 | 120692 | 136686
9 | 30:22.37 | 3:31.47 | 136687 | 152558
10 | 33:54.09 | 3:49.34 | 152559 | 169767
11 | 37:43.43 | 4:54.65 | 169768 | 191882
12 | 45:10.33 | 14:36.40 | 203283 | 269022

Характеристики диапазона извлечения и сообщения об ошибках

Выбранный диапазон

Имя файла D:\123\Новые рипы\Козловский\Виталий Козловский - Холодная ночь.wav

Пиковый уровень 94.4 %
Качество диапазона 100.0 %
CRC копии 7C62B4AE
Копирование... OK

Ошибок не произошло

AccurateRip: сводка

Трек 1 нет в базе данных
Трек 2 нет в базе данных
Трек 3 нет в базе данных
Трек 4 нет в базе данных
Трек 5 нет в базе данных
Трек 6 нет в базе данных
Трек 7 нет в базе данных
Трек 8 нет в базе данных
Трек 9 нет в базе данных
Трек 10 нет в базе данных
Трек 11 нет в базе данных

Ни одного трека нет в базе AccurateRip

Конец отчёта
Audiochecker Log
AUDIOCHECKER v2.0 beta (build 457) - by Dester - [email protected]
~~~~~~~~~~~~~~~~~~~~~~~~~~~~~~~~~~
-=== НЕ РЕДАКТИРУЙТЕ ЭТОТ ФАЙЛ! ===-

Путь: ...\2005 - Холодная ночь

01 -=- 01 - Холодная ночь.wav -=- CDDA (100%)
02 -=- 02 - Шекспир.wav -=- MPEG (95%)
03 -=- 03 - Жовтий лист.wav -=- CDDA (100%)
04 -=- 04 - Цепочка.wav -=- CDDA (99%)
05 -=- 05 - Comme toi.wav -=- CDDA (100%)
06 -=- 06 - Скажи менi (Може любов).wav -=- CDDA (99%)
07 -=- 07 - Сладко.wav -=- CDDA (100%)
08 -=- 08 - Вернись iз спогадiв.wav -=- CDDA (100%)
09 -=- 09 - Секрет.wav -=- CDDA (100%)
10 -=- 10 - Вiдправила месседж.wav -=- CDDA (100%)
11 -=- 11 - Чорнобривцi.wav -=- CDDA (100%)

Сводка 91,18% CDDA

173514340
Data CD

Назва: Холодная ночь
Якість:
кодек: DX50
розмір кадру: 720*576 (4:3)
бітрейт відео 3279 кбіт/сек

Аудіо: мова: російська
кодек: PCM 44100 кГц
бітрейт: 1411 кбіт/сек

Clip_Kozlovsky.avi (Тривалість: 00:03:49)


2006 - Нерозгадані сни


01 - Пинаколада - 3:19
02 - Небо плаче - 3:27
03 - Лавина - 4:12
04 - Нерозгадані сни - 3:20
05 - Я тебя найду - 4:22
06 - Камерон - 3:53
07 - Мир станет лучше (Хотеть не вредно) - 3:39
08 - Розлука - 5:01
09 - Королева ночі - 3:34
10 - Старі фотографії - 3:48
11 - Pinacolada - 3:19
12 - Waterfall - 4:09

Тривалість: 00:46:05
Видавець: Lavina Music
Мова: українська (02, 04, 06, 08-10), російська (01, 03, 05, 07), англійська (11-12)
EAC Log
Exact Audio Copy V0.99 prebeta 5 from 4. May 2009

EAC extraction logfile from 5. March 2010, 21:07

Віталій Козловський / Нерозгадані сни

Used drive : HL-DT-STDVDRAM GSA-H10N Adapter: 0 ID: 1

Read mode : Secure
Utilize accurate stream : Yes
Defeat audio cache : Yes
Make use of C2 pointers : No

Read offset correction : 667
Overread into Lead-In and Lead-Out : No
Fill up missing offset samples with silence : Yes
Delete leading and trailing silent blocks : No
Null samples used in CRC calculations : No
Used interface : Native Win32 interface for Win NT & 2000

Used output format : Monkey's Audio Lossless Encoder v3.99 DLL
Sample format : High Lossless Compression

TOC of the extracted CD

Track | Start | Length | Start sector | End sector
---------------------------------------------------------
1 | 0:00.00 | 3:19.19 | 0 | 14943
2 | 3:19.19 | 3:27.34 | 14944 | 30502
3 | 6:46.53 | 4:11.47 | 30503 | 49374
4 | 10:58.25 | 3:19.64 | 49375 | 64363
5 | 14:18.14 | 4:22.32 | 64364 | 84045
6 | 18:40.46 | 3:53.13 | 84046 | 101533
7 | 22:33.59 | 3:39.32 | 101534 | 117990
8 | 26:13.16 | 5:01.30 | 117991 | 140595
9 | 31:14.46 | 3:33.38 | 140596 | 156608
10 | 34:48.09 | 3:48.35 | 156609 | 173743
11 | 38:36.44 | 3:19.25 | 173744 | 188693
12 | 41:55.69 | 4:09.07 | 188694 | 207375

Range status and errors

Selected range

Filename E:\Music3\Ukrainian\К\Козловський Віталій\2006 - Нерозгадані сни\2006 - Нерозгадані сни.ape

Peak level 94.4 %
Range quality 100.0 %
Test CRC D2728CBF
Copy CRC D2728CBF
Copy OK

No errors occurred

AccurateRip summary

Track 1 not present in database
Track 2 not present in database
Track 3 not present in database
Track 4 not present in database
Track 5 not present in database
Track 6 not present in database
Track 7 not present in database
Track 8 not present in database
Track 9 not present in database
Track 10 not present in database
Track 11 not present in database
Track 12 not present in database

None of the tracks are present in the AccurateRip database

End of status report
Audiochecker Log
AUDIOCHECKER v2.0 beta (build 457) - by Dester - [email protected]
~~~~~~~~~~~~~~~~~~~~~~~~~~~~~~~~~~
-=== DO NOT EDIT THIS FILE! ===-

Path: ...\2006 - Нерозгадані сни

01 -=- 01 - Пинаколада.wav -=- CDDA (99%)
02 -=- 02 - Небо плаче.wav -=- CDDA (100%)
03 -=- 03 - Лавина.wav -=- CDDA (99%)
04 -=- 04 - Нерозгадані сни.wav -=- CDDA (100%)
05 -=- 05 - Я тебя найду.wav -=- CDDA (100%)
06 -=- 06 - Камерон.wav -=- CDDA (99%)
07 -=- 07 - Мир станет лучше (Хотеть не вредно).wav -=- CDDA (100%)
08 -=- 08 - Розлука.wav -=- CDDA (100%)
09 -=- 09 - Королева ночі.wav -=- CDDA (100%)
10 -=- 10 - Старі фотографії.wav -=- CDDA (100%)
11 -=- 11 - Pinacolada.wav -=- CDDA (100%)
12 -=- 12 - Waterfall.wav -=- CDDA (99%)

Summary 99,67% CDDA

200284196
2007 - Красота-разлука


01 - Інтро - 1:09
02 - Красота-разлука - 2:55
03 - Думай лишь о том - 4:00
04 - Знаєш - 3:37
05 - Залиши мені - 3:40
06 - Ты хотела - 3:12
07 - Повільно - 3:32
08 - Не моя - 3:10
09 - Втома - 4:07
10 - Где-то далеко - 3:36
11 - Згадую - 3:49
12 - Казанова - 3:35
13 - Красота-разлука (Remix) - 3:26
14 - Лебедь-зима (feat. дует MILOS) - 3:51

Тривалість: 00:47:40
Видавець: CompMusic
Мова: українська (04, 05, 07-09, 11), російська (02, 03, 06, 10, 12-14)
EAC Log
Exact Audio Copy V0.99 prebeta 5 from 4. May 2009

EAC extraction logfile from 5. March 2010, 21:27

Віталій Козловський / Красота-разлука

Used drive : HL-DT-STDVDRAM GSA-H10N Adapter: 0 ID: 1

Read mode : Secure
Utilize accurate stream : Yes
Defeat audio cache : Yes
Make use of C2 pointers : No

Read offset correction : 667
Overread into Lead-In and Lead-Out : No
Fill up missing offset samples with silence : Yes
Delete leading and trailing silent blocks : No
Null samples used in CRC calculations : No
Used interface : Native Win32 interface for Win NT & 2000

Used output format : Monkey's Audio Lossless Encoder v3.99 DLL
Sample format : High Lossless Compression

TOC of the extracted CD

Track | Start | Length | Start sector | End sector
---------------------------------------------------------
1 | 0:00.00 | 1:09.03 | 0 | 5177
2 | 1:09.03 | 2:55.20 | 5178 | 18322
3 | 4:04.23 | 4:00.17 | 18323 | 36339
4 | 8:04.40 | 3:36.69 | 36340 | 52608
5 | 11:41.34 | 3:39.50 | 52609 | 69083
6 | 15:21.09 | 3:11.55 | 69084 | 83463
7 | 18:32.64 | 3:32.10 | 83464 | 99373
8 | 22:04.74 | 3:10.15 | 99374 | 113638
9 | 25:15.14 | 4:07.06 | 113639 | 132169
10 | 29:22.20 | 3:36.24 | 132170 | 148393
11 | 32:58.44 | 3:48.51 | 148394 | 165544
12 | 36:47.20 | 3:35.15 | 165545 | 181684
13 | 40:22.35 | 3:26.06 | 181685 | 197140
14 | 43:48.41 | 3:51.19 | 197141 | 214484

Range status and errors

Selected range

Filename E:\Music3\Ukrainian\К\Козловський Віталій\2007 - Красота-разлука\2007 - Красота-разлука.ape

Peak level 95.3 %
Range quality 100.0 %
Test CRC 5E0BECF7
Copy CRC 5E0BECF7
Copy OK

No errors occurred

AccurateRip summary

Track 1 not present in database
Track 2 not present in database
Track 3 not present in database
Track 4 not present in database
Track 5 not present in database
Track 6 not present in database
Track 7 not present in database
Track 8 not present in database
Track 9 not present in database
Track 10 not present in database
Track 11 not present in database
Track 12 not present in database
Track 13 not present in database
Track 14 not present in database

None of the tracks are present in the AccurateRip database

End of status report
Audiochecker Log
AUDIOCHECKER v2.0 beta (build 457) - by Dester - [email protected]
~~~~~~~~~~~~~~~~~~~~~~~~~~~~~~~~~~
-=== DO NOT EDIT THIS FILE! ===-

Path: ...\2007 - Красота-разлука

01 -=- 01 - Інтро.wav -=- MPEG (95%)
02 -=- 02 - Красота-разлука.wav -=- CDDA (100%)
03 -=- 03 - Думай лишь о том.wav -=- CDDA (99%)
04 -=- 04 - Знаєш.wav -=- CDDA (100%)
05 -=- 05 - Залиши мені.wav -=- CDDA (99%)
06 -=- 06 - Ты хотела.wav -=- CDDA (100%)
07 -=- 07 - Повільно.wav -=- CDDA (100%)
08 -=- 08 - Не моя.wav -=- CDDA (100%)
09 -=- 09 - Втома.wav -=- CDDA (100%)
10 -=- 10 - Где-то далеко.wav -=- CDDA (100%)
11 -=- 11 - Згадую.wav -=- CDDA (100%)
12 -=- 12 - Казанова.wav -=- CDDA (100%)
13 -=- 13 - Красота-разлука (Remix).wav -=- CDDA (99%)
14 -=- 14 - Лебедь-зима (feat. дует MILOS).wav -=- MPEG (95%)

Summary 86,21% CDDA

216191028
2009 - Тільки кохання


01 - Только рядом - 3:32
02 - Мало (feat. Ірина Білик) - 3:17
03 - Pronto - 3:22
04 - Тільки кохання (саунд-трек до серіалу 'Тільки кохання') - 3:10
05 - Дождь стучит в окно - 3:43
06 - Без тебя - 4:01
07 - Полечу - 3:50
08 - З тобою я - 3:54
09 - Лебеди - 3:46
10 - Весняний шепіт листя - 3:44
11 - Обещание - 3:33
12 - Загадай - 3:58
13 - Знаєш Remix (DJ Jedy) - 3:58
14 - Sophisticated Beauty - 2:54

Тривалість: 00:50:42
Видавець: Moon records
Мова: українська (04, 08, 10, 12-13), російська (01-03, 05-07, 09, 11), англійська (14)
EAC Log
Exact Audio Copy V0.99 prebeta 5 from 4. May 2009

Отчёт EAC об извлечении, выполненном 5. января 2010, 19:14

Віталій Козловський / Тільки кохання

Дисковод: Optiarc DVD RW AD-7173S Adapter: 5 ID: 0

Режим чтения : Достоверность
Использование точного потока : Да
Отключение кэша аудио : Да
Использование указателей C2 : Нет

Коррекция смещения при чтении : 48
Способность читать области Lead-in и Lead-out : Нет
Заполнение пропущенных сэмплов тишиной : Да
Удаление блоков с тишиной в начале и конце : Нет
При вычислениях CRC использовались нулевые сэмплы : Да
Интерфейс : Встроенный Win32-интерфейс для Win NT/2000

Выходной формат : Внутренние WAV-операции
Формат сэмплов : 44.100 Гц; 16 бит; стерео

TOC извлечённого CD

Трек | Старт | Длительность | Начальный сектор | Конечный сектор
---------------------------------------------------------------------
1 | 0:00.00 | 3:31.52 | 0 | 15876
2 | 3:31.52 | 3:17.21 | 15877 | 30672
3 | 6:48.73 | 3:22.21 | 30673 | 45843
4 | 10:11.19 | 3:09.52 | 45844 | 60070
5 | 13:20.71 | 3:42.54 | 60071 | 76774
6 | 17:03.50 | 4:00.60 | 76775 | 94834
7 | 21:04.35 | 3:49.54 | 94835 | 112063
8 | 24:54.14 | 3:54.14 | 112064 | 129627
9 | 28:48.28 | 3:46.14 | 129628 | 146591
10 | 32:34.42 | 3:44.37 | 146592 | 163428
11 | 36:19.04 | 3:32.46 | 163429 | 179374
12 | 39:51.50 | 3:58.21 | 179375 | 197245
13 | 43:49.71 | 3:58.11 | 197246 | 215106
14 | 47:48.07 | 2:54.12 | 215107 | 228168

Характеристики диапазона извлечения и сообщения об ошибках

Выбранный диапазон

Имя файла C:\Users\Женя\Desktop\Віталій Козловський - Тільки кохання (2009) (Flac)\Віталій Козловський - Тільки кохання.wav

Пиковый уровень 93.9 %
Качество диапазона 99.9 %
CRC теста 40B99CEA
CRC копии 40B99CEA
Копирование... OK

Ошибок не произошло

AccurateRip: сводка

Трек 1 нет в базе данных
Трек 2 нет в базе данных
Трек 3 нет в базе данных
Трек 4 нет в базе данных
Трек 5 нет в базе данных
Трек 6 нет в базе данных
Трек 7 нет в базе данных
Трек 8 нет в базе данных
Трек 9 нет в базе данных
Трек 10 нет в базе данных
Трек 11 нет в базе данных
Трек 12 нет в базе данных
Трек 13 нет в базе данных
Трек 14 нет в базе данных

Ни одного трека нет в базе AccurateRip

Конец отчёта
Audiochecker Log
AUDIOCHECKER v2.0 beta (build 457) - by Dester - [email protected]
~~~~~~~~~~~~~~~~~~~~~~~~~~~~~~~~~~
-=== DO NOT EDIT THIS FILE! ===-

Path: ...\2009 - Тільки кохання

01 -=- 01 - Только рядом.wav -=- CDDA (100%)
02 -=- 02 - Мало (feat. Ірина Білик).wav -=- CDDA (100%)
03 -=- 03 - Pronto.wav -=- CDDA (100%)
04 -=- 04 - Тільки кохання (саунд-трек до серіалу 'Тільки кохання').wav -=- CDDA (100%)
05 -=- 05 - Дождь стучит в окно.wav -=- CDDA (99%)
06 -=- 06 - Без тебя.wav -=- CDDA (100%)
07 -=- 07 - Полечу.wav -=- CDDA (100%)
08 -=- 08 - З тобою я.wav -=- CDDA (100%)
09 -=- 09 - Лебеди.wav -=- CDDA (100%)
10 -=- 10 - Весняний шепіт листя.wav -=- CDDA (100%)
11 -=- 11 - Обещание.wav -=- CDDA (100%)
12 -=- 12 - Загадай.wav -=- CDDA (100%)
13 -=- 13 - Знаєш Remix (DJ Jedy).wav -=- CDDA (99%)
14 -=- 14 - Sophisticated Beauty.wav -=- CDDA (100%)

Summary 99,86% CDDA

66706564
Тривалість: 03:07:06
Мова: українська (1-4), російська (1-4), англійська (1, 4)
Аудіо-кодек: FLAC
Ріп: image+*.cue (EAC Log, audiochecker log, cover)
EAC: Secure + Accurate stream + disable cache/C2 + Read offset correction
Бітрейт: lossless (~979-1017 кбіт/сек)

Джерело: власний ріп (2, 3) (1, 4)


Золотий реліз (завантажене не впливає на рейтинг)
 Трекер:    Зареєстрований   

Завантажити / скачати українську музику



відео для новачків



 Зареєстрований:   2010-03-06 16:48
 Розмір:   1.43 GB 
 Оцінка музики:   7.2/10 (Голосів: 13)
   
Tarasyk 
Відео Гуртом - фільмокрай
Відео Гуртом - фільмокрай


З нами з: 26.08.09
Востаннє: 28.11.16
Повідомлень: 5972

2010-03-06 17:23  
plyrvt, маю єдине запитаннячко: на УМЦІ вказано, що до альбому
plyrvt написано:
2005 - Холодная ночь
входить взагалі інша кількість пісень у трохи іншій послідовності. Що скажеш?
plyrvt 
VIP


З нами з: 03.12.08
Востаннє: 03.12.16
Повідомлень: 398

2010-03-06 17:28  
обкладинка
а на умці пише Номер за каталогом: LM CD 437/2
2 - це мабуть перевипуск

Tarasyk 
Відео Гуртом - фільмокрай
Відео Гуртом - фільмокрай


З нами з: 26.08.09
Востаннє: 28.11.16
Повідомлень: 5972

2010-03-06 17:33  
Добре. Мабуть так воно і є...
plyrvt 
VIP


З нами з: 03.12.08
Востаннє: 03.12.16
Повідомлень: 398

2010-03-11 01:36  
Щось ніхто не качає, мабуть соромляться що їх нік засвітиться в полі "Звантажили" Wide grin
Luka256 
Новенький


З нами з: 04.04.10
Востаннє: 09.04.10
Повідомлень: 1

2010-04-05 09:46  
Як тут будеш качати,якщо роздавати нікому?Мені наприклад не соромно,я за Козловським ще з Шансу слідкую.Звичайно змінився хлопака,але це реалії шоубізнесу.А голос в нього не забереш...
sobakan 
Новенький


З нами з: 11.06.10
Востаннє: 13.04.11
Повідомлень: 14

2010-07-02 02:56  
таких співунів козаки на палі саджали
kievman2 
Новенький


З нами з: 26.08.10
Востаннє: 28.09.14
Повідомлень: 14

2011-06-15 10:40  
sobakan
От з-за таких собоканів і не має української влади в Україні. Все не то все не так. Зроби щось краще ось тоді і поговоримо.

mr.killer 
Свій


З нами з: 11.08.10
Востаннє: 03.12.16
Повідомлень: 146

2016-11-10 10:01  
чи має хтось скани до останнього альбому?
ярий тверезенник 
VIP


З нами з: 29.01.12
Востаннє: 04.12.16
Повідомлень: 1592

2016-11-10 19:51  
Цитата:
От з-за таких собоканів і не має української влади в Україні. Все не то все не так. Зроби щось краще ось тоді і поговоримо.
а не дають і не дадуть нічого зробити кацапо-українці...
Ваш часовий пояс: GMT + 2 Години

Нова тема   Відповісти