Завантажити та скачати торренти українською


VA - Світові хіти у виконанні Українських зірок (2006) [FLAC] | Pop

Нові коментарі

Нова тема   Відповісти
Автор Повідомлення
plyrvt 
VIP


З нами з: 03.12.08
Востаннє: 09.12.16
Повідомлень: 398

2010-03-06 13:53  
VA - Світові хіти у виконанні Українських зірок (2006) [FLAC] | Pop



Стиль: Pop
Країна, місто: Україна, Київ
Видавець: CompMusic
Пісні:

    01 - Viva, Україна (We Will Rock You) - 2:25
    Танок На Майдані Конго
    02 - Новий рік (Ladies Night) - 3:08
    Алібі
    03 - Золоте Різдво (Enjoy The Silence) - 2:58
    Друга Ріка
    04 - Ангел не спить (Un-Break My Heart) - 3:43
    Ані Лорак
    05 - З Новим роком (Real Sugar) - 2:54
    Таліта Кум
    06 - Що ти знаєш про жінок? (She's A Lady) - 2:52
    Віктор Павлік
    07 - Ламбада (Lambada) - 3:07
    Yurcash
    08 - Не зімкну очей (I Don't Wanna Miss A Thing) - 3:44
    Ірина Новікова
    09 - Кожен подих мій (Every Breath You Take) - 2:56
    Росава & Контрабанда
    10 - Розслабся (Don't Worry Be Happy) - 3:41
    Mad Heads XL
    11 - А серце мліє (O Sole Mio) - 3:08
    Володимир Гришко
    12 - Три солодкі дні (Dragostei Din Tei) - 2:52
    XS
    13 - В Новий рік (Only You) - 2:35
    Джазекс
    14 - Новорічні привiтання (The Pink Panther Theme) - 3:12
    Вова зі Львова & Max Chorny
    15 - З Новим роком! (One Way Ticket) - 3:24
    MJ Kuvaldin
    EAC Log
    Exact Audio Copy V0.99 prebeta 4 from 23. January 2008

    Отчёт EAC об извлечении, выполненном 4. июля 2008, 22:38

    Various Artists / Зимова Казка на М1. Свiтовi хiти у виконаннi Укнаiнських зiрок

    Дисковод: ASUS DRW-1814BLT Adapter: 3 ID: 1

    Режим чтения : Достоверность
    Использование точного потока : Да
    Отключение кэша аудио : Да
    Использование указателей C2 : Нет

    Коррекция смещения при чтении : 6
    Способность читать области Lead-in и Lead-out : Нет
    Заполнение пропущенных сэмплов тишиной : Да
    Удаление блоков с тишиной в начале и конце : Нет
    При вычислениях CRC использовались нулевые сэмплы : Да
    Интерфейс : Установленный внешний ASPI-интерфейс

    Выходной формат : Monkey's Audio Lossless Encoder v3.99 DLL
    Формат сэмплов : Normal Lossless Compression

    TOC извлечённого CD

    Трек | Старт | Длительность | Начальный сектор | Конечный сектор
    ---------------------------------------------------------------------
    1 | 0:00.00 | 2:25.03 | 0 | 10877
    2 | 2:25.03 | 3:08.05 | 10878 | 24982
    3 | 5:33.08 | 2:58.30 | 24983 | 38362
    4 | 8:31.38 | 3:42.58 | 38363 | 55070
    5 | 12:14.21 | 2:54.14 | 55071 | 68134
    6 | 15:08.35 | 2:51.47 | 68135 | 81006
    7 | 18:00.07 | 3:07.04 | 81007 | 95035
    8 | 21:07.11 | 3:43.61 | 95036 | 111821
    9 | 24:50.72 | 2:56.34 | 111822 | 125055
    10 | 27:47.31 | 3:40.69 | 125056 | 141624
    11 | 31:28.25 | 3:08.10 | 141625 | 155734
    12 | 34:36.35 | 2:52.27 | 155735 | 168661
    13 | 37:28.62 | 2:34.50 | 168662 | 180261
    14 | 40:03.37 | 3:11.52 | 180262 | 194638
    15 | 43:15.14 | 3:23.62 | 194639 | 209925

    Характеристики диапазона извлечения и сообщения об ошибках

    Выбранный диапазон

    Имя файла G:\Music\Music lossless (FLAC, APE)\Various Artists - 2006 - Зимова казка на М1\Various Artists - 2006 - Зимова казка на М1.ape

    Пиковый уровень 100.0 %
    Качество диапазона 100.0 %
    CRC копии E712C63A
    Копирование... OK

    Ошибок не произошло

    Конец отчёта
    Audiochecker Log
    AUDIOCHECKER v2.0 beta (build 457) - by Dester - [email protected]
    ~~~~~~~~~~~~~~~~~~~~~~~~~~~~~~~~~~
    -=== DO NOT EDIT THIS FILE! ===-

    Path: ...\2006 - Зимова Казка на М1

    01 -=- 01 - Viva, Украiна (We Will Rock You).wav -=- CDDA (100%)
    02 -=- 02 - Новий рiк (Ladies Night).wav -=- CDDA (100%)
    03 -=- 03 - Золоте Рiздво (Enjoy The Silence).wav -=- CDDA (100%)
    04 -=- 04 - Ангел не спить (Un-Break My Heart).wav -=- CDDA (100%)
    05 -=- 05 - З Новим роком (Real Sugar).wav -=- CDDA (100%)
    06 -=- 06 - Що ти знаєш про жiнок_ (She's A Lady).wav -=- CDDA (100%)
    07 -=- 07 - Ламбада (Lambada).wav -=- CDDA (100%)
    08 -=- 08 - Не зiмкну очей (I Don't Wanna Miss A Thing).wav -=- CDDA (100%)
    09 -=- 09 - Кожен подих мiй (Every Breath You Take).wav -=- CDDA (100%)
    10 -=- 10 - Розслабся (Don't Worry Be Happy).wav -=- CDDA (100%)
    11 -=- 11 - А серце млiє (O Sole Mio).wav -=- CDDA (100%)
    12 -=- 12 - Три солодкi днi (Dragostei Din Tei).wav -=- CDDA (100%)
    13 -=- 13 - В Новий рiк (Only You).wav -=- CDDA (100%)
    14 -=- 14 - Новорiчнi привiтання (The Pink Panther Theme).wav -=- CDDA (100%)
    15 -=- 15 - З Новим роком! (One Way Ticket).wav -=- CDDA (100%)

    Summary 100,00% CDDA

    232260500

Джерело: Ivancho
Тривалість: 00:46:39
Мова: українська
Аудіо-кодек: FLAC
Ріп: image+*.cue (EAC Log, audiochecker log, cover)
EAC: Secure + Accurate stream + disable cache/C2 + Read offset correction
Бітрейт: lossless (~991 кбіт/сек)


Срібний реліз (на рейтинг впливає 50% завантаженого)
 Трекер:    Зареєстрований   

Завантажити / скачати українську музику



відео для новачків



 Зареєстрований:   2010-03-06 13:58
 Розмір:   333 MB 
 Оцінка музики:   9.7/10 (Голосів: 23)
   
8530 
VIP


З нами з: 27.01.09
Востаннє: 23.11.16
Повідомлень: 494

2013-01-06 13:19  
хороши збірник! хотів залити! Перевірив а він уже є!
Ваш часовий пояс: GMT + 2 Години

Нова тема   Відповісти