Завантажити та скачати торренти українською


VA - Олег Скрипка - Презентує Пісні Барикад (2005) [FLAC] | Folk / Bard

Нові коментарі

Нова тема   Відповісти
Автор Повідомлення
plyrvt 
VIP


З нами з: 03.12.08
Востаннє: 03.12.16
Повідомлень: 398

2010-03-02 19:05  
VA - Олег Скрипка - Презентує Пісні Барикад (2005) [FLAC] | Folk / Bard


Країна, місто: Україна, Київ
Сайти: Офіційний сайт
Видавець: Moon records
Виконавці:
Сергій Солоний.
Тарас Компаніченко.
Сергій Фоменко
Едуард Драч
Тарас Силенко
Олег Скрипка
Ґринджоли
Пісні:
    01 - Сергій Солоний. Пісня Вічного Вогню - 2:45
    02 - Сергій Солоний. Бій козаків у небі - 2:50
    03 - Святослав Силенко. Гамалія - 2:24
    04 - Святослав Силенко. Дивувалась зима - 1:43
    05 - Тарас Компаніченко. Ми сміло в бій підем - 3:04
    06 - Тарас Компаніченко. Чи то буря чи то грім - 2:35
    07 - Сергій Фоменко. За Сибіром сонце сходить - 3:18
    08 - Сергій Фоменко. Не спи - 4:10
    09 - Едуард Драч. Мойсей - 3:03
    10 - Едуард Драч. Козацька доля - 2:55
    11 - Тарас Силенко. Ельдорадо - 4:45
    12 - Тарас Силенко. Пісня про Саву Чалого - 5:17
    13 - Олег Скрипка. Козацька - 2:00
    14 - Олег Скрипка. Світ - 3:08
    15 - Гринджоли. Ми разом, нас багато - 2:30
    16 - Гринджоли. Пора - 3:10
    EAC Log
    Exact Audio Copy V0.99 prebeta 4 from 23. January 2008

    Отчёт EAC об извлечении, выполненном 11. января 2010, 19:14

    Various / Пісні Барикад

    Дисковод: PIONEER DVD-RW DVR-212 Adapter: 7 ID: 0

    Режим чтения : Достоверность
    Использование точного потока : Да
    Отключение кэша аудио : Да
    Использование указателей C2 : Нет

    Коррекция смещения при чтении : 48
    Способность читать области Lead-in и Lead-out : Нет
    Заполнение пропущенных сэмплов тишиной : Да
    Удаление блоков с тишиной в начале и конце : Нет
    При вычислениях CRC использовались нулевые сэмплы : Да
    Интерфейс : Установленный внешний ASPI-интерфейс

    Выходной формат : Внутренние WAV-операции
    Формат сэмплов : 44.100 Гц; 16 бит; стерео

    TOC извлечённого CD

    Трек | Старт | Длительность | Начальный сектор | Конечный сектор
    ---------------------------------------------------------------------
    1 | 0:00.00 | 2:45.19 | 0 | 12393
    2 | 2:45.19 | 2:50.11 | 12394 | 25154
    3 | 5:35.30 | 2:24.37 | 25155 | 35991
    4 | 7:59.67 | 1:43.20 | 35992 | 43736
    5 | 9:43.12 | 3:04.27 | 43737 | 57563
    6 | 12:47.39 | 2:35.07 | 57564 | 69195
    7 | 15:22.46 | 3:17.39 | 69196 | 84009
    8 | 18:40.10 | 4:09.62 | 84010 | 102746
    9 | 22:49.72 | 3:02.74 | 102747 | 116470
    10 | 25:52.71 | 2:54.64 | 116471 | 129584
    11 | 28:47.60 | 4:44.48 | 129585 | 150932
    12 | 33:32.33 | 5:16.61 | 150933 | 174693
    13 | 38:49.19 | 1:59.65 | 174694 | 183683
    14 | 40:49.09 | 3:07.49 | 183684 | 197757
    15 | 43:56.58 | 2:30.12 | 197758 | 209019
    16 | 46:26.70 | 3:10.05 | 209020 | 223274

    Характеристики диапазона извлечения и сообщения об ошибках

    Выбранный диапазон

    Имя файла B:\MP 3\Воплi Вiдоплясова (FLAC)\2005 Олег Скрипка Презентуэ Пісні Барикад\Various - Пісні Барикад.wav

    Пиковый уровень 97.7 %
    Качество диапазона 100.0 %
    CRC теста 446E5D6D
    CRC копии 446E5D6D
    Копирование... OK

    Ошибок не произошло

    AccurateRip: сводка

    Трек 1 нет в базе данных
    Трек 2 нет в базе данных
    Трек 3 нет в базе данных
    Трек 4 нет в базе данных
    Трек 5 нет в базе данных
    Трек 6 нет в базе данных
    Трек 7 нет в базе данных
    Трек 8 нет в базе данных
    Трек 9 нет в базе данных
    Трек 10 нет в базе данных
    Трек 11 нет в базе данных
    Трек 12 нет в базе данных
    Трек 13 нет в базе данных
    Трек 14 нет в базе данных
    Трек 15 нет в базе данных
    Трек 16 нет в базе данных

    Ни одного трека нет в базе AccurateRip

    Конец отчёта
    Audiochecker Log
    AUDIOCHECKER v2.0 beta (build 457) - by Dester - [email protected]
    ~~~~~~~~~~~~~~~~~~~~~~~~~~~~~~~~~~
    -=== DO NOT EDIT THIS FILE! ===-

    Path: ...\2005 - Пісні помаранчевого повстання

    01 -=- 01 - Сергій Солоний. Пісня Вічного Вогню.wav -=- MPEG (89%)
    02 -=- 02 - Сергій Солоний. Бій козаків у небі.wav -=- MPEG (93%)
    03 -=- 03 - Святослав Силенко. Гамалія.wav -=- MPEG (89%)
    04 -=- 04 - Святослав Силенко. Дивувалась зима.wav -=- CDDA (43%)
    05 -=- 05 - Тарас Компаніченко. Ми сміло в бій підем.wav -=- MPEG (89%)
    06 -=- 06 - Тарас Компаніченко. Чи то буря чи то грім.wav -=- CDDA (100%)
    07 -=- 07 - Сергій Фоменко. За Сибіром сонце сходить.wav -=- CDDA (43%)
    08 -=- 08 - Сергій Фоменко. Не спи.wav -=- MPEG (90%)
    09 -=- 09 - Едуард Драч. Мойсей.wav -=- MPEG (92%)
    10 -=- 10 - Едуард Драч. Козацька доля.wav -=- CDDA (100%)
    11 -=- 11 - Тарас Силенко. Ельдорадо.wav -=- MPEG (93%)
    12 -=- 12 - Тарас Силенко. Пісня про Саву Чалого.wav -=- CDDA (100%)
    13 -=- 13 - Олег Скрипка. Козацька.wav -=- CDDA (99%)
    14 -=- 14 - Олег Скрипка. Світ.wav -=- MPEG (93%)
    15 -=- 15 - Гринджоли. Ми разом, нас багато.wav -=- ERROR
    16 -=- 16 - Гринджоли. Пора.wav -=- MPEG (90%)

    Summary 37,80% CDDA

    227174020

Тривалість: 00:49:37
Мова: українська
Аудіо-кодек: FLAC
Бітрейт: lossless (~807 кбіт/сек)

Скрипка Олег | Дискографія [2 альбоми, 1 бутлег] (2001-2009) [FLAC] | Folk Rock


Срібний реліз (на рейтинг впливає 50% завантаженого)
 Трекер:    Зареєстрований   

Завантажити / скачати українську музику



відео для новачків



 Зареєстрований:   2010-03-02 19:05
 Розмір:   288 MB 
 Оцінка музики:   10/10 (Голосів: 12)
   
Ваш часовий пояс: GMT + 2 Години

Нова тема   Відповісти