Завантажити та скачати торренти українською


Гайдамаки | Колекція [5 альбомів] (2002-2009) [FLAC] | Folk-Rock / Ska

Нові коментарі

Нова тема   Відповісти
Автор Повідомлення
plyrvt 
VIP


З нами з: 03.12.08
Востаннє: 03.12.16
Повідомлень: 398

2010-02-28 15:16  
Гайдамаки | Колекція [5 альбомів] (2002-2009) [FLAC] | Folk-Rock / Ska



Стиль: Folk, Ska, Rock
Країна, місто: Україна, Київ
Сайти: Офіційний сайт

Видавець: Comp music, Agora, Antena Krzyku
Виконавці:
Олександр Ярмола - спів, сопілка, лірика
Іван Леньо - акордеон, цимбали, міді, спів
Руслан Оврас - ударні
Володимир Шерстюк - бас, дримба
Олександр Дем'яненко - гітара, мандоліна
Еугеніу (Гайдук) Дідик - труба
Склад "Voo Voo"
Войцех Ваглєвські (Wojciech Waglewski) - вокал, гітара
Матеуш Посп'єжальські (Mateusz Pospieszalski) - саксофон, вокал
Карим Мартусевіч (Karim Martusewicz) - бас, контрабас, пилка
Пьотр Зузелевіч (Piotr (Stopa) Zyzelewicz) - барабани
Альбоми:
2002 - Гайдамаки


01 - Св'ят вечір - 3:08
02 - Стара Румунія - 3:07
03 - КарпатенСка - 2:38
04 - Полісся - 3:44
05 - Червоні вершники - 3:22
06 - Біла-біла - 2:48
07 - Жнива - 3:32
08 - Кавалок - 1:57
09 - Ой, то не Ружа - 2:40
10 - А вже років 200 - 6:44
11 - Тіні забутих предків - 5:05
12 - Нехай, нехай - 3:56

Тривалість: 00:42:41
EAC Log
Exact Audio Copy V0.99 prebeta 4 from 23. January 2008

Звіт EAC про видобування, котре виконане 30. вересня 2009, 13:58

Гайдамаки / Гайдамаки

Дисковод: TSSTcorpCDDVDW SH-S202J Adapter: 1 ID: 1

Режим читання : Точний
Використати точний потік : Так
Вимкнути аудіо кеш : Так
Застосувати мітки C2 : Ні

Корекція зміщення при читанні : 6
Екстрачитання областей Lead-in і Lead-out : Ні
Заповнення пропущених семплів тишею : Так
Видалення блоків з тишею на початку і кінці : Ні
При вирахуванні CRC використовувались нульові семпли : Так
Використаний інтерфейс : Встановлений зовнішній ASPI-інтерфейс
Поводження з проміжками : Не знайдено, отже приєднано до попереднього трека

Застосований вихідний формат : Внутрішні WAV-операції
Формат семпла : 44.100 Гц; 16 біт; стерео

TOC видобутого CD

Трек | Старт | Довжина | Початковий сектор | Кінцевий сектор
------------------------------------------------------------------
1 | 0:00.00 | 3:07.74 | 0 | 14098
2 | 3:07.74 | 3:06.48 | 14099 | 28096
3 | 6:14.47 | 2:37.60 | 28097 | 39931
4 | 8:52.32 | 3:44.29 | 39932 | 56760
5 | 12:36.61 | 3:22.09 | 56761 | 71919
6 | 15:58.70 | 2:47.39 | 71920 | 84483
7 | 18:46.34 | 3:31.49 | 84484 | 100357
8 | 22:18.08 | 1:57.37 | 100358 | 109169
9 | 24:15.45 | 2:40.30 | 109170 | 121199
10 | 26:56.00 | 6:43.43 | 121200 | 151467
11 | 33:39.43 | 5:05.36 | 151468 | 174378
12 | 38:45.04 | 3:55.39 | 174379 | 192042

Трек 1

Ім'я файлу C:\Documents and Settings\Admin\Рабочий стол\Гайдамаки\Св'ят вечір.wav

Піковий рівень 97.7 %
Якість трека 100.0 %
CRC копії 230756BA
Точно видобутий (впевненість 1) [CE70BF38]
Копіювання... OK

Трек 2

Ім'я файлу C:\Documents and Settings\Admin\Рабочий стол\Гайдамаки\Стара Румунія.wav

Піковий рівень 99.9 %
Якість трека 99.9 %
CRC копії 214AA531
Точність не визначена (достовірність 1) [4C3F7A80], AccurateRip повернув [6130D802]
Копіювання... OK

Трек 3

Ім'я файлу C:\Documents and Settings\Admin\Рабочий стол\Гайдамаки\КарпатенСка.wav

Піковий рівень 97.7 %
Якість трека 100.0 %
CRC копії EA60AC4A
Точно видобутий (впевненість 1) [DA360F35]
Копіювання... OK

Трек 4

Ім'я файлу C:\Documents and Settings\Admin\Рабочий стол\Гайдамаки\Полісся.wav

Піковий рівень 97.7 %
Якість трека 100.0 %
CRC копії E857EB26
Точно видобутий (впевненість 1) [2CF05648]
Копіювання... OK

Трек 5

Ім'я файлу C:\Documents and Settings\Admin\Рабочий стол\Гайдамаки\Червоні вершники.wav

Піковий рівень 97.8 %
Якість трека 100.0 %
CRC копії FE3CBB74
Точно видобутий (впевненість 1) [834D106E]
Копіювання... OK

Трек 6

Ім'я файлу C:\Documents and Settings\Admin\Рабочий стол\Гайдамаки\Біла-біла.wav

Піковий рівень 97.7 %
Якість трека 100.0 %
CRC копії D95C73F3
Точно видобутий (впевненість 1) [F60E2682]
Копіювання... OK

Трек 7

Ім'я файлу C:\Documents and Settings\Admin\Рабочий стол\Гайдамаки\Жнива.wav

Піковий рівень 97.8 %
Якість трека 100.0 %
CRC копії 85488CB0
Точно видобутий (впевненість 1) [982C0DA1]
Копіювання... OK

Трек 8

Ім'я файлу C:\Documents and Settings\Admin\Рабочий стол\Гайдамаки\Кавалок.wav

Піковий рівень 97.7 %
Якість трека 100.0 %
CRC копії BFB957C4
Точно видобутий (впевненість 1) [CBC2A11B]
Копіювання... OK

Трек 9

Ім'я файлу C:\Documents and Settings\Admin\Рабочий стол\Гайдамаки\Ой, то не Ружа.wav

Піковий рівень 97.8 %
Якість трека 99.9 %
CRC копії 92CAE7F3
Точно видобутий (впевненість 1) [04D1F302]
Копіювання... OK

Трек 10

Ім'я файлу C:\Documents and Settings\Admin\Рабочий стол\Гайдамаки\А вже років 200.wav

Піковий рівень 97.7 %
Якість трека 100.0 %
CRC копії 8DC04FB7
Точно видобутий (впевненість 1) [B4B77987]
Копіювання... OK

Трек 11

Ім'я файлу C:\Documents and Settings\Admin\Рабочий стол\Гайдамаки\Тіні забутих предків.wav

Піковий рівень 97.7 %
Якість трека 99.9 %
CRC копії 524CF6C5
Точно видобутий (впевненість 1) [E053C241]
Копіювання... OK

Трек 12

Ім'я файлу C:\Documents and Settings\Admin\Рабочий стол\Гайдамаки\Нехай, нехай.wav

Піковий рівень 97.7 %
Якість трека 100.0 %
CRC копії 41A085BF
Точно видобутий (впевненість 1) [082BB98A]
Копіювання... OK

11 трек(и) видобуті точно
1 трек(и) не вдалося перевірити на точність

Деякі треки не пройшли перевірку на точність

Помилки не траплялися

Кінець звіту
Audiochecker Log
AUDIOCHECKER v2.0 beta (build 457) - by Dester - [email protected]
~~~~~~~~~~~~~~~~~~~~~~~~~~~~~~~~~~
-=== DO NOT EDIT THIS FILE! ===-

Path: ...\2002 - Гайдамаки

01 -=- 01 - А вже років 200.flac -=- CDDA (100%)
02 -=- 02 - Біла-біла.flac -=- CDDA (100%)
03 -=- 03 - Жнива.flac -=- CDDA (99%)
04 -=- 04 - Кавалок.flac -=- CDDA (100%)
05 -=- 05 - КарпатенСка.flac -=- CDDA (100%)
06 -=- 06 - Нехай, нехай.flac -=- CDDA (100%)
07 -=- 07 - Ой, то не Ружа.flac -=- CDDA (100%)
08 -=- 08 - Полісся.flac -=- CDDA (100%)
09 -=- 09 - Св'ят вечір.flac -=- CDDA (100%)
10 -=- 10 - Стара Румунія.flac -=- CDDA (99%)
11 -=- 11 - Тіні забутих предків.flac -=- CDDA (100%)
12 -=- 12 - Червоні вершники.flac -=- CDDA (99%)

Summary 99,75% CDDA

63158724
2004 - Богуслав


01 - Богуслав - 4:19
02 - Маланка - 3:08
03 - Висить ябко, висить - 2:06
04 - Сестри - 4:14
05 - Ой гукала горлиця - 4:30
06 - Сусідка - 3:38
07 - Чоловікові 30 літ - 4:37
08 - За нашов стодолов - 3:16
09 - Летіла зозуля - 4:36
10 - Пісня про музику - 3:03
11 - Легенда - 2:30
12 - Жнива - 3:52

Тривалість: 00:43:49
EAC Log
Exact Audio Copy V0.99 prebeta 5 from 4. May 2009

EAC extraction logfile from 7. October 2009, 21:53

Haydamaky / Bohuslav

Used drive : HL-DT-STDVDRAM GSA-T50L Adapter: 0 ID: 0

Read mode : Secure
Utilize accurate stream : Yes
Defeat audio cache : Yes
Make use of C2 pointers : No

Read offset correction : 667
Overread into Lead-In and Lead-Out : No
Fill up missing offset samples with silence : Yes
Delete leading and trailing silent blocks : No
Null samples used in CRC calculations : Yes
Used interface : Installed external ASPI interface

Used output format : User Defined Encoder
Selected bitrate : 768 kBit/s
Quality : High
Add ID3 tag : No
Command line compressor : C:\Program Files\Exact Audio Copy\FLAC\FLAC.EXE
Additional command line options : -8 -V -T "ARTIST=%a" -T "TITLE=%t" -T "ALBUM=%g" -T "DATE=%y" -T "TRACKNUMBER=%n" -T "GENRE=%m" -T "COMMENT=%e" %s -o %d

TOC of the extracted CD

Track | Start | Length | Start sector | End sector
---------------------------------------------------------
1 | 0:00.00 | 4:19.06 | 0 | 19430
2 | 4:19.06 | 3:08.36 | 19431 | 33566
3 | 7:27.42 | 2:06.24 | 33567 | 43040
4 | 9:33.66 | 4:13.55 | 43041 | 62070
5 | 13:47.46 | 4:29.49 | 62071 | 82294
6 | 18:17.20 | 3:37.60 | 82295 | 98629
7 | 21:55.05 | 4:36.64 | 98630 | 119393
8 | 26:31.69 | 3:16.37 | 119394 | 134130
9 | 29:48.31 | 4:35.47 | 134131 | 154802
10 | 34:24.03 | 3:03.16 | 154803 | 168543
11 | 37:27.19 | 2:29.59 | 168544 | 179777
12 | 39:57.03 | 3:51.61 | 179778 | 197163

Range status and errors

Selected range

Filename C:\Users\Tato\Music\Haydamaky - Bohuslav.wav

Peak level 98.0 %
Range quality 100.0 %
Test CRC 7F7C043F
Copy CRC 7F7C043F
Copy OK

No errors occurred

AccurateRip summary

Track 1 accurately ripped (confidence 1) [7EFC3C52]
Track 2 accurately ripped (confidence 1) [44E71EC5]
Track 3 accurately ripped (confidence 1) [476CF684]
Track 4 accurately ripped (confidence 1) [30BF59A4]
Track 5 accurately ripped (confidence 1) [F41A684C]
Track 6 accurately ripped (confidence 1) [3FC3D855]
Track 7 accurately ripped (confidence 1) [711DC908]
Track 8 accurately ripped (confidence 1) [2EA304B1]
Track 9 accurately ripped (confidence 1) [F7A27DF7]
Track 10 accurately ripped (confidence 1) [FB427932]
Track 11 accurately ripped (confidence 1) [8CB3801D]
Track 12 accurately ripped (confidence 1) [788DD2EF]

All tracks accurately ripped

End of status report
Audiochecker Log
AUDIOCHECKER v2.0 beta (build 457) - by Dester - [email protected]
~~~~~~~~~~~~~~~~~~~~~~~~~~~~~~~~~~
-=== DO NOT EDIT THIS FILE! ===-

Path: ...\2004 - Богуслав

01 -=- 01 - Богуслав.wav -=- CDDA (100%)
02 -=- 02 - Маланка.wav -=- CDDA (100%)
03 -=- 03 - Висить ябко, висить.wav -=- CDDA (100%)
04 -=- 04 - Сестри.wav -=- CDDA (86%)
05 -=- 05 - Ой гукала горлиця.wav -=- CDDA (100%)
06 -=- 06 - Сусідка.wav -=- CDDA (100%)
07 -=- 07 - Чоловікові 30 літ.wav -=- CDDA (100%)
08 -=- 08 - За нашов стодолов.wav -=- CDDA (100%)
09 -=- 09 - Летіла зозуля.wav -=- CDDA (99%)
10 -=- 10 - Пісня про музику.wav -=- CDDA (100%)
11 -=- 11 - Легенда.wav -=- CDDA (100%)
12 -=- 12 - Жнива.wav -=- CDDA (100%)

Summary 98,75% CDDA

201121028
2005 - Перверзія


01 - Кохання (Aді Цитрині) - 3:55
02 - Чуєш - 1:30
03 - Немає Хліба - співай - 4:11
04 - Листопад - 5:03
05 - Шіді-Ріді - 3:07
06 - Божественна Тромпіта - 5:04
07 - Долинов, Долинов - 3:56
08 - Сумний Святий Вечір - 3:48
09 - Сім Бід - 3:41
10 - На Тому Боці - 2:50
11 - Під Облачком - 4:50
12 - Центр Української Культури - 2:31

Тривалість: 00:44:24
EAC Log
Exact Audio Copy V0.99 prebeta 5 from 4. May 2009

EAC extraction logfile from 19. September 2009, 22:05

Unknown Artist / Unknown Title

Used drive : HL-DT-STDVDRAM GSA-H62N Adapter: 2 ID: 0

Read mode : Secure
Utilize accurate stream : Yes
Defeat audio cache : Yes
Make use of C2 pointers : No

Read offset correction : 667
Overread into Lead-In and Lead-Out : No
Fill up missing offset samples with silence : Yes
Delete leading and trailing silent blocks : No
Null samples used in CRC calculations : Yes
Used interface : Installed external ASPI interface
Gap handling : Appended to previous track

Used output format : User Defined Encoder
Selected bitrate : 128 kBit/s
Quality : High
Add ID3 tag : No
Command line compressor : C:\Program Files\Exact Audio Copy\Flac\flac.exe
Additional command line options : -8 -V -T "ARTIST=%a" -T "TITLE=%t" -T "ALBUM=%g" -T "DATE=%y" -T "TRACKNUMBER=%n" -T "GENRE=%m" -T "COMMENT=EAC FLAC -8" %s

TOC of the extracted CD

Track | Start | Length | Start sector | End sector
---------------------------------------------------------
1 | 0:00.00 | 3:54.62 | 0 | 17611
2 | 3:54.62 | 1:29.65 | 17612 | 24351
3 | 5:24.52 | 4:10.40 | 24352 | 43141
4 | 9:35.17 | 5:03.01 | 43142 | 65867
5 | 14:38.18 | 3:06.65 | 65868 | 79882
6 | 17:45.08 | 5:03.49 | 79883 | 102656
7 | 22:48.57 | 3:55.73 | 102657 | 120354
8 | 26:44.55 | 3:48.30 | 120355 | 137484
9 | 30:33.10 | 3:40.52 | 137485 | 154036
10 | 34:13.62 | 2:49.69 | 154037 | 166780
11 | 37:03.56 | 4:50.16 | 166781 | 188546
12 | 41:53.72 | 2:30.40 | 188547 | 199836

Track 1

Filename C:\Documents and Settings\Admin\Рабочий стол\01. Unknown Artist – Track01.wav

Pre-gap length 0:00:02.00

Peak level 100.0 %
Track quality 100.0 %
Test CRC C90D019E
Copy CRC C90D019E
Copy OK

Track 2

Filename C:\Documents and Settings\Admin\Рабочий стол\02. Unknown Artist – Track02.wav

Pre-gap length 0:00:02.00

Peak level 100.0 %
Track quality 100.0 %
Test CRC 138BFD09
Copy CRC 138BFD09
Copy OK

Track 3

Filename C:\Documents and Settings\Admin\Рабочий стол\03. Unknown Artist – Track03.wav

Peak level 98.8 %
Track quality 100.0 %
Test CRC 607237E7
Copy CRC 607237E7
Copy OK

Track 4

Filename C:\Documents and Settings\Admin\Рабочий стол\04. Unknown Artist – Track04.wav

Pre-gap length 0:00:02.00

Peak level 98.8 %
Track quality 100.0 %
Test CRC 20AEF53C
Copy CRC 20AEF53C
Copy OK

Track 5

Filename C:\Documents and Settings\Admin\Рабочий стол\05. Unknown Artist – Track05.wav

Pre-gap length 0:00:02.00

Peak level 98.8 %
Track quality 100.0 %
Test CRC E2273B16
Copy CRC E2273B16
Copy OK

Track 6

Filename C:\Documents and Settings\Admin\Рабочий стол\06. Unknown Artist – Track06.wav

Pre-gap length 0:00:02.00

Peak level 98.8 %
Track quality 100.0 %
Test CRC C7F33B92
Copy CRC C7F33B92
Copy OK

Track 7

Filename C:\Documents and Settings\Admin\Рабочий стол\07. Unknown Artist – Track07.wav

Pre-gap length 0:00:02.00

Peak level 98.8 %
Track quality 100.0 %
Test CRC C08C3476
Copy CRC C08C3476
Copy OK

Track 8

Filename C:\Documents and Settings\Admin\Рабочий стол\08. Unknown Artist – Track08.wav

Pre-gap length 0:00:02.00

Peak level 98.8 %
Track quality 100.0 %
Test CRC 3C21EAD4
Copy CRC 3C21EAD4
Copy OK

Track 9

Filename C:\Documents and Settings\Admin\Рабочий стол\09. Unknown Artist – Track09.wav

Pre-gap length 0:00:02.00

Peak level 98.7 %
Track quality 100.0 %
Test CRC 12488477
Copy CRC 12488477
Copy OK

Track 10

Filename C:\Documents and Settings\Admin\Рабочий стол\10. Unknown Artist – Track10.wav

Pre-gap length 0:00:02.00

Peak level 98.8 %
Track quality 100.0 %
Test CRC 0D8AE456
Copy CRC 0D8AE456
Copy OK

Track 11

Filename C:\Documents and Settings\Admin\Рабочий стол\11. Unknown Artist – Track11.wav

Pre-gap length 0:00:02.00

Peak level 98.2 %
Track quality 99.9 %
Test CRC 7DCC0AF8
Copy CRC 7DCC0AF8
Copy OK

Track 12

Filename C:\Documents and Settings\Admin\Рабочий стол\12. Unknown Artist – Track12.wav

Pre-gap length 0:00:02.00

Peak level 98.8 %
Track quality 100.0 %
Test CRC FF224462
Copy CRC FF224462
Copy OK

No errors occurred

End of status report
Audiochecker Log
AUDIOCHECKER v2.0 beta (build 457) - by Dester - [email protected]
~~~~~~~~~~~~~~~~~~~~~~~~~~~~~~~~~~
-=== DO NOT EDIT THIS FILE! ===-

Path: ...\2005 - Перверзія

01 -=- 01 - Кохання (Aді Цитрині).flac -=- CDDA (100%)
02 -=- 02 - Чуєш.flac -=- CDDA (100%)
03 -=- 03 - Немає Хліба - співай.flac -=- CDDA (99%)
04 -=- 04 - Листопад.flac -=- CDDA (100%)
05 -=- 05 - Шіді-Ріді.flac -=- CDDA (100%)
06 -=- 06 - Божественна Тромпіта.flac -=- CDDA (100%)
07 -=- 07 - Долинов, Долинов.flac -=- CDDA (99%)
08 -=- 08 - Сумний Святий Вечір.flac -=- CDDA (100%)
09 -=- 09 - Сім Бід.flac -=- CDDA (100%)
10 -=- 10 - На Тому Боці.flac -=- CDDA (100%)
11 -=- 11 - Під Облачком.flac -=- CDDA (99%)
12 -=- 12 - Центр Української Культури.flac -=- CDDA (100%)

Summary 99,75% CDDA

223990452
2008 - Кобзар



01 - Вступ - 0:19
02 - Ефір - 4:35
03 - Їду трамваєм - 3:31
04 - Message - 4:20
05 - Маланка - 4:33
06 - Мені здається - 4:47
07 - 4 двори - 3:38
08 - Спокуса - 3:12
09 - Мені розкаже ранішня роса - 6:03
10 - Чорна стріла - 5:28
11 - Лелеки - 3:55
12 - Маруся - 2:36
13 - Їхав козак за Дунай - 4:43
14 - Вітер віє - 6:14
15 - Вітер віє (Hard Work Studio AS One Remix) - 4:44

Тривалість: 01:02:37
Видавець: Antena Krzyku
Мова: українська (01-03, 05-15), польська (04)
EAC Log
Exact Audio Copy V0.99 prebeta 4 from 23. January 2008

EAC extraction logfile from 9. May 2008, 20:36

Haydamaky / Kobzar

Used drive : _NEC DVD_RW ND-4570A Adapter: 1 ID: 0

Read mode : Secure
Utilize accurate stream : Yes
Defeat audio cache : Yes
Make use of C2 pointers : No

Read offset correction : 48
Overread into Lead-In and Lead-Out : No
Fill up missing offset samples with silence : Yes
Delete leading and trailing silent blocks : Yes
Null samples used in CRC calculations : Yes
Used interface : Native Win32 interface for Win NT & 2000
Gap handling : Appended to previous track

Used output format : User Defined Encoder
Selected bitrate : 128 kBit/s
Quality : High
Add ID3 tag : No
Command line compressor : C:\Program Files\Exact Audio Copy\Flac\flac.exe
Additional command line options : -8 -V -T "ARTIST=%a" -T "TITLE=%t" -T "ALBUM=%g" -T "DATE=%y" -T "TRACKNUMBER=%n" -T "GENRE=%m" -T "COMMENT=EAC FLAC -8" %s

TOC of the extracted CD

Track | Start | Length | Start sector | End sector
---------------------------------------------------------
1 | 0:00.00 | 0:19.11 | 0 | 1435
2 | 0:19.11 | 4:34.52 | 1436 | 22037
3 | 4:53.63 | 3:31.12 | 22038 | 37874
4 | 8:25.00 | 4:20.33 | 37875 | 57407
5 | 12:45.33 | 4:33.04 | 57408 | 77886
6 | 17:18.37 | 4:46.42 | 77887 | 99378
7 | 22:05.04 | 3:38.18 | 99379 | 115746
8 | 25:43.22 | 3:12.27 | 115747 | 130173
9 | 28:55.49 | 6:03.05 | 130174 | 157403
10 | 34:58.54 | 5:27.71 | 157404 | 181999
11 | 40:26.50 | 3:55.12 | 182000 | 199636
12 | 44:21.62 | 2:36.15 | 199637 | 211351
13 | 46:58.02 | 4:42.69 | 211352 | 232570
14 | 51:40.71 | 6:14.26 | 232571 | 260646
15 | 57:55.22 | 4:44.33 | 260647 | 281979

Track 1

Filename D:\Moja muzyka\nowe\Haydamaky - Kobzar [FLAC]\01 - Vstup.wav

Pre-gap length 0:00:02.00

Peak level 33.0 %
Track quality 100.0 %
Test CRC 64BFF8DE
Copy CRC 64BFF8DE
Copy OK

Track 2

Filename D:\Moja muzyka\nowe\Haydamaky - Kobzar [FLAC]\02 - Efir.wav

Peak level 97.7 %
Track quality 100.0 %
Test CRC 101C5F9C
Copy CRC 101C5F9C
Copy OK

Track 3

Filename D:\Moja muzyka\nowe\Haydamaky - Kobzar [FLAC]\03 - Yidu Tramvayem.wav

Peak level 97.7 %
Track quality 99.9 %
Test CRC 880EA83B
Copy CRC 880EA83B
Copy OK

Track 4

Filename D:\Moja muzyka\nowe\Haydamaky - Kobzar [FLAC]\04 - Message.wav

Peak level 97.7 %
Track quality 100.0 %
Test CRC DFB2E8FA
Copy CRC DFB2E8FA
Copy OK

Track 5

Filename D:\Moja muzyka\nowe\Haydamaky - Kobzar [FLAC]\05 - Malanka.wav

Peak level 97.7 %
Track quality 100.0 %
Test CRC 1E36C37F
Copy CRC 1E36C37F
Copy OK

Track 6

Filename D:\Moja muzyka\nowe\Haydamaky - Kobzar [FLAC]\06 - Meni Zdayetsa.wav

Peak level 97.7 %
Track quality 99.9 %
Test CRC 9B27AED3
Copy CRC 9B27AED3
Copy OK

Track 7

Filename D:\Moja muzyka\nowe\Haydamaky - Kobzar [FLAC]\07 - 4 Dvori.wav

Peak level 97.7 %
Track quality 100.0 %
Test CRC 0BB63483
Copy CRC 0BB63483
Copy OK

Track 8

Filename D:\Moja muzyka\nowe\Haydamaky - Kobzar [FLAC]\08 - Spokusa.wav

Peak level 97.7 %
Track quality 100.0 %
Test CRC 1B6A6D66
Copy CRC 1B6A6D66
Copy OK

Track 9

Filename D:\Moja muzyka\nowe\Haydamaky - Kobzar [FLAC]\09 - Rosa.wav

Peak level 97.7 %
Track quality 100.0 %
Test CRC 15B97E21
Copy CRC 15B97E21
Copy OK

Track 10

Filename D:\Moja muzyka\nowe\Haydamaky - Kobzar [FLAC]\10 - Chorna Strila.wav

Peak level 97.4 %
Track quality 100.0 %
Test CRC 95C40271
Copy CRC 95C40271
Copy OK

Track 11

Filename D:\Moja muzyka\nowe\Haydamaky - Kobzar [FLAC]\11 - Leleki.wav

Peak level 97.7 %
Track quality 100.0 %
Test CRC 4CBCE162
Copy CRC 4CBCE162
Copy OK

Track 12

Filename D:\Moja muzyka\nowe\Haydamaky - Kobzar [FLAC]\12 - Marusya.wav

Peak level 97.7 %
Track quality 100.0 %
Test CRC 8BDCFC3F
Copy CRC 8BDCFC3F
Copy OK

Track 13

Filename D:\Moja muzyka\nowe\Haydamaky - Kobzar [FLAC]\13 - Yikhav Kozak.wav

Peak level 97.7 %
Track quality 99.9 %
Test CRC 6F8E605A
Copy CRC 6F8E605A
Copy OK

Track 14

Filename D:\Moja muzyka\nowe\Haydamaky - Kobzar [FLAC]\14 - Viter Viye.wav

Peak level 97.7 %
Track quality 100.0 %
Test CRC B2A03489
Copy CRC B2A03489
Copy OK

Track 15

Filename D:\Moja muzyka\nowe\Haydamaky - Kobzar [FLAC]\15 - Studio AS One Remix , Viter Viye (Hard Work Studio AS One Remix).wav

Pre-gap length 0:00:00.21

Peak level 97.7 %
Track quality 100.0 %
Test CRC 2A787A05
Copy CRC 2A787A05
Copy OK

No errors occurred

End of status report
Audiochecker Log
AUDIOCHECKER v2.0 beta (build 457) - by Dester - [email protected]
~~~~~~~~~~~~~~~~~~~~~~~~~~~~~~~~~~
-=== DO NOT EDIT THIS FILE! ===-

Path: ...\2008 - Кобзар

01 -=- 01 - Вступ.flac -=- CDDA (85%)
02 -=- 02 - Ефір.flac -=- CDDA (99%)
03 -=- 03 - Їду трамваєм.flac -=- CDDA (100%)
04 -=- 04 - Message.flac -=- CDDA (100%)
05 -=- 05 - Маланка.flac -=- CDDA (99%)
06 -=- 06 - Мені здається.flac -=- CDDA (100%)
07 -=- 07 - 4 двори.flac -=- CDDA (100%)
08 -=- 08 - Спокуса.flac -=- CDDA (100%)
09 -=- 09 - Мені розкаже ранішня роса.flac -=- CDDA (100%)
10 -=- 10 - Чорна стріла.flac -=- CDDA (100%)
11 -=- 11 - Лелеки.flac -=- CDDA (99%)
12 -=- 12 - Маруся.flac -=- CDDA (100%)
13 -=- 13 - Їхав козак за Дунай.flac -=- CDDA (100%)
14 -=- 14 - Вітер віє.flac -=- CDDA (99%)
15 -=- 15 - Вітер віє (Hard Work Studio AS One Remix).flac -=- CDDA (100%)

Summary 98,73% CDDA

176157828
2009 - Voo Voo i Haydamaky


01 - Badz Zdrowe, Serce Me - 5:18
02 - Tylko Z Nieba - 4:42
03 - Do Ternopola - 5:28
04 - Dumka Dla Kitona - 2:19
05 - Besarabka - 3:53
06 - Poleczko - 5:42
07 - Z Kolegami - 4:45
08 - Wyszła Młoda - 5:42
09 - Dinata - 4:32
10 - Babilon System - 5:44

Тривалість: 00:48:05
Видавець: Agora
Мова: українська (03, 06, 08, 10), польська (01-02, 04-05, 07, 09)
EAC Log
Exact Audio Copy V0.99 prebeta 5 from 4. May 2009

Sprawozdanie ze zgrywania programem EAC z 23. Czerwca 2009, 17:44

Voo Voo i Haydamaky / Voo Voo i Haydamaky

U┐yty napΩd: TSSTcorpCDDVDW SH-S203P Adapter: 1 ID: 0

Tryb odczytu: : Bezpieczny
Dok│adny strumie± : Tak
Neutralizacja bufora napΩdu : Tak
Zwracanie b│Ωd≤w C2 : Nie

Korekta po│o┐enia dla odczytu : 6
Nadczytywanie w obszarach LeadIn i LeadOut : Nie
Dope│nianie cisz╣ brakuj╣cych pr≤bek : Tak
Usuwanie pocz╣tkowych i ko±cowych blok≤w ciszy : Nie
Do przeliczenia sumy kontrolnej CRC u┐ywane s╣ pr≤bki zerowe : Nie
Interfejs : WewnΩtrzny interfejs Win32 dla Windows NT i 2000
Przerwy : Nie wykryte, zatem dodawane do poprzedniego nagrania

U┐yty format wyj£ciowy : WewnΩtrzne procedury WAV
Format pr≤bki : 44.100 Hz; 16 bit≤w; stereo

TOC zgranej p│yty

Utw≤r | Pocz╣tek | D│ugo£µ | Sektor pocz╣tkowy | Sektor ko±cowy
------------------------------------------------------------------
1 | 0:00.00 | 5:18.09 | 0 | 23858
2 | 5:18.09 | 4:42.13 | 23859 | 45021
3 | 10:00.22 | 5:27.64 | 45022 | 69610
4 | 15:28.11 | 2:18.56 | 69611 | 80016
5 | 17:46.67 | 3:52.64 | 80017 | 97480
6 | 21:39.56 | 5:42.03 | 97481 | 123133
7 | 27:21.59 | 4:44.50 | 123134 | 144483
8 | 32:06.34 | 5:42.25 | 144484 | 170158
9 | 37:48.59 | 4:32.21 | 170159 | 190579
10 | 42:21.05 | 5:43.73 | 190580 | 216377

Nagranie 1

îcie┐ka pliku M:\Voo Voo i Haydamaky\01 - Badz Zdrowe, Serce Me.wav

Poziom wysterowania 100.0 %
Jako£µ nagrania 99.9 %
CRC testowana F39CD685
CRC kopii F39CD685
Nagrania nie ma w bazie danych AccurateRip
Kopia bezb│Ωdna

Nagranie 2

îcie┐ka pliku M:\Voo Voo i Haydamaky\02 - Tylko Z Nieba.wav

Poziom wysterowania 100.0 %
Jako£µ nagrania 100.0 %
CRC testowana A71E8A3F
CRC kopii A71E8A3F
Nagrania nie ma w bazie danych AccurateRip
Kopia bezb│Ωdna

Nagranie 3

îcie┐ka pliku M:\Voo Voo i Haydamaky\03 - Do Ternopola.wav

Poziom wysterowania 100.0 %
Jako£µ nagrania 100.0 %
CRC testowana 34AFBDE8
CRC kopii 34AFBDE8
Nagrania nie ma w bazie danych AccurateRip
Kopia bezb│Ωdna

Nagranie 4

îcie┐ka pliku M:\Voo Voo i Haydamaky\04 - Dumka Dla Kitona.wav

Poziom wysterowania 99.6 %
Jako£µ nagrania 100.0 %
CRC testowana 65B70BBF
CRC kopii 65B70BBF
Nagrania nie ma w bazie danych AccurateRip
Kopia bezb│Ωdna

Nagranie 5

îcie┐ka pliku M:\Voo Voo i Haydamaky\05 - Besarabka.wav

Poziom wysterowania 100.0 %
Jako£µ nagrania 100.0 %
CRC testowana D534F154
CRC kopii D534F154
Nagrania nie ma w bazie danych AccurateRip
Kopia bezb│Ωdna

Nagranie 6

îcie┐ka pliku M:\Voo Voo i Haydamaky\06 - Poleczko.wav

Poziom wysterowania 100.0 %
Jako£µ nagrania 99.9 %
CRC testowana 67A9F66E
CRC kopii 67A9F66E
Nagrania nie ma w bazie danych AccurateRip
Kopia bezb│Ωdna

Nagranie 7

îcie┐ka pliku M:\Voo Voo i Haydamaky\07 - Z Kolegami.wav

Poziom wysterowania 100.0 %
Jako£µ nagrania 100.0 %
CRC testowana CB095E08
CRC kopii CB095E08
Nagrania nie ma w bazie danych AccurateRip
Kopia bezb│Ωdna

Nagranie 8

îcie┐ka pliku M:\Voo Voo i Haydamaky\08 - Wysz│a M│oda.wav

Poziom wysterowania 100.0 %
Jako£µ nagrania 99.9 %
CRC testowana 6553341B
CRC kopii 6553341B
Nagrania nie ma w bazie danych AccurateRip
Kopia bezb│Ωdna

Nagranie 9

îcie┐ka pliku M:\Voo Voo i Haydamaky\09 - Dinata.wav

Poziom wysterowania 100.0 %
Jako£µ nagrania 99.9 %
CRC testowana 8FAE4F61
CRC kopii 8FAE4F61
Nagrania nie ma w bazie danych AccurateRip
Kopia bezb│Ωdna

Nagranie 10

îcie┐ka pliku M:\Voo Voo i Haydamaky\10 - Babilon System.wav

Poziom wysterowania 100.0 %
Jako£µ nagrania 100.0 %
CRC testowana 6FBFA676
CRC kopii 6FBFA676
Nagrania nie ma w bazie danych AccurateRip
Kopia bezb│Ωdna

»adnego nagrania nie ma w bazie danych AccurateRip

Nie by│o b│Ωd≤w

Koniec raportu
Audiochecker Log
AUDIOCHECKER v2.0 beta (build 457) - by Dester - [email protected]
~~~~~~~~~~~~~~~~~~~~~~~~~~~~~~~~~~
-=== DO NOT EDIT THIS FILE! ===-

Path: ...\2009 - Voo Voo i Haydamaky

01 -=- 01 - Badz Zdrowe, Serce Me.flac -=- CDDA (100%)
02 -=- 02 - Tylko Z Nieba.flac -=- CDDA (100%)
03 -=- 03 - Do Ternopola.flac -=- CDDA (100%)
04 -=- 04 - Dumka Dla Kitona.flac -=- CDDA (99%)
05 -=- 05 - Besarabka.flac -=- CDDA (100%)
06 -=- 06 - Poleczko.flac -=- CDDA (100%)
07 -=- 07 - Z Kolegami.flac -=- CDDA (100%)
08 -=- 08 - Wyszla Mloda.flac -=- CDDA (100%)
09 -=- 09 - Dinata.flac -=- CDDA (100%)
10 -=- 10 - Babilon System.flac -=- CDDA (100%)

Summary 99,90% CDDA

193359188
Тривалість: 04:01:36
Мова: українська (1-5), польська (4, 5)
Аудіо-кодек: FLAC
Ріп: image+CUE (альбом 2), tracks+CUE (1, 3-5), EAC, audiochecker, cover
EAC: Secure + Accurate stream + disable cache/C2
Бітрейт: lossless (~954-1083 кбіт/с)
Джерело: , ed2k

Додаткова інформація:
Гурт Гайдамаки було засновано на початку 90-х років групою київських студентів. До 2001 року колектив мав назву "АКТУС". З появою в колективі у 1993-му нового вокаліста Олександра Ярмоли музиканти полишають юнацькі блюз-рокові експерименти, натомість захоплюються альтернативою з помітним впливом українського мелосу.

За роки існування групи стиль та звучання багато разів трансформувався від independent і post-punk до reggae, funk та ска. У результаті постійних пошуків сформувався новий оригінальний стиль - Karpaten SKA, що являє собою гармонійне поєднання української автентики та різноманітних roots-впливів (від ямайського ска до циганської мелодики).
ОНОВЛЕНО 05.03.2008
- впорядковано треки в "2002 - Гадамаки", перекодовано FLAC з SEEKTABLE
- додано обгортки до "2005 - Перверзія"
- альбом "2008 - Кобзар" замінено на альбом видавництва Antena Krzyku, з бонусним треком, ковриками і без дефектів як на диску CompMusic
- додано альбом "2009 - Voo Voo i Haydamaky"


Золотий реліз (завантажене не впливає на рейтинг)
 Трекер:    Зареєстрований   

Завантажити / скачати українську музику



відео для новачків



 Зареєстрований:   2010-03-05 11:40
 Розмір:   1.68 GB 
 Оцінка музики:   9.8/10 (Голосів: 81)
   
Tarasyk 
Відео Гуртом - фільмокрай
Відео Гуртом - фільмокрай


З нами з: 26.08.09
Востаннє: 28.11.16
Повідомлень: 5972

2010-02-28 15:33  
plyrvt, а чому назвав колекцією? Більше схоже на дискографію...
plyrvt 
VIP


З нами з: 03.12.08
Востаннє: 03.12.16
Повідомлень: 398

2010-02-28 16:23  
Не вистачає:
"2006 - Ukraine Calling"
"2009 - Voo Voo i Haydamaky"

І те і те пізніше може викладу

willrain 
Частий відвідувач


З нами з: 24.01.10
Востаннє: 23.03.16
Повідомлень: 25

2010-03-01 21:33  
В первом альбоме во FLAC'e SEEKTABLE отсутствует.
plyrvt 
VIP


З нами з: 03.12.08
Востаннє: 03.12.16
Повідомлень: 398

2010-03-02 00:12  
willrain переробити з SEEKTABLE? Де це є актуальним?
willrain 
Частий відвідувач


З нами з: 24.01.10
Востаннє: 23.03.16
Повідомлень: 25

2010-03-02 00:17  
Переделывать не надо, если уж переделывать - то оформлять все в одном стиле. SEEKTABLE создается оригинальным flac-кодером, но почему-то в некоторых виндовых CD-рипперах какая-то кривая версия, которая данный тег не создает. SEEKTABLE используется для более быстрого поиска определенного участка внутри файла, иначе говоря - для перемотки.
plyrvt 
VIP


З нами з: 03.12.08
Востаннє: 03.12.16
Повідомлень: 398

2010-03-02 00:23  
Это всё общие слова. Мотивируйте зачем переделывать с SEEKTABLE, если по любым причинам случилось что его нету. Какая разнциа за сколько перемотка - за 1 микросекунду или 1 наносекунду? Тем более если речь о потрековом релизе, а не образом.
jinotot 
Почесний оцифрувальник літератури


З нами з: 28.01.09
Востаннє: 04.12.16
Повідомлень: 3235

2010-03-02 00:29  
Ееее... Пардон, шо втручаюсь... Обговорюйте, будь ласка, це питання в темі про музику в lossless, в розділі обговорень, а то знову буде кілька сторінок розмови про тонкі матерії, які не стосуються безпосередно роздачі...
Наперед вдячний!

willrain 
Частий відвідувач


З нами з: 24.01.10
Востаннє: 23.03.16
Повідомлень: 25

2010-03-02 00:29  
Повторяю: переделывать не надо.

Оригинальный референсный кодек ее создает, она используется и я считаю, что она должна быть.

В плеерах, которые не создают индекс для таких "битых" файлов, не будет работать перемотка. Совсем.

willrain 
Частий відвідувач


З нами з: 24.01.10
Востаннє: 23.03.16
Повідомлень: 25

2010-03-03 15:37  
Да, еще: в первом альбоме несответствие порядка треков на обложке и в реальности. Как правильно-то?
plyrvt 
VIP


З нами з: 03.12.08
Востаннє: 03.12.16
Повідомлень: 398

2010-03-05 00:08  
Через певні проблеми з 2 альбомами (заводський брак Кобзар і переплутаний порядок треків Гайдамаки) призупинив роздачу. Завтра викладу пофіксений (альбом Кобзар польського видавництва без браку і з бонусним треком, впорядкований альбом Гайдамаки з SEEKTABLE) і новий матеріал (коврики Перверзія і Voo Voo).
plyrvt 
VIP


З нами з: 03.12.08
Востаннє: 03.12.16
Повідомлень: 398

2010-03-05 11:50  
Знову на роздачі, хто вже качали - видаліть папки 2002 і 2008.
В папці 2008 на деяких треках такі чутні на слух:
звукові дефекти були

dzhola 
Частий відвідувач


З нами з: 07.09.09
Востаннє: 20.11.16
Повідомлень: 41

2010-09-05 18:31  
Ukraine calling - це та ж Перверзія, тілько для західного ринку
ssTAss 
Модератор музики


З нами з: 05.07.08
Востаннє: 06.12.16
Повідомлень: 10946

2012-02-19 18:47  
Ярмола пішов стопами Вакарчука і Барбари?
Цитата:
Відкрите звернення музикантів гурту «Гайдамаки» Володимира Шерстюка, Івана Леньо, Олександра Дем’яненка, Сергія Борисенка та Сергія Соловія до усіх небайдужих!
Відповідаючи на запитання, які виникають і ще виникатимуть у зв’язку із ситуацією, що склалась навколо гурту «Гайдамаки», музиканти гурту наголошують:
Гурт ««Гайдамаки», у тому складі, в якому Ви звикли його бачити, існування не припиняв, але через непримиримі творчі розбіжності «Гайдамаки» обрали різні музичні шляхи з вокалістом Олександром Ярмолою.
Наголошуємо - новоутворений Олександром Ярмолою польсько-український колектив не є «Гайдамаками» до яких усі звикли, це – музична фальсифікація, іншими словами, кавер-версія гурту. Цей проект, за словами самого Олександра Ярмоли (!), мав би називатися «Ярема» та планував грати музику відмінну від Гайдамаків (див. http://dozor.com.ua/news/fakti/lichnosti/1109965.html).
Істинні «Гайдамаки» - це не просто колектив музикантів на сцені, а живий музичний організм, який сформувався під час сотень концертів по всьому світу, багатогодинних виснажливих репетицій, централізованого звукового продюсування проекту, спільної роботи на сцені, єдиної філософії та світосприйняття.
Жоден сесійний музикант, який би високий професійний рівень він не мав, не зможе точно відтворити авторську ідею звучання, емоційне та філософське наповнення кожної з композицій, адже просто не є їх творцем!
Набрані ж Ярмолою для співпраці музиканти, на нашу думку, порушують професійну етику.
Адже під своїми іменами вони виконуватимуть чужий музичний матеріал, напрацьований музикантами «Гайдамаків» протягом останніх 15-ти років. А споживач такої продукції – «платитиме» за «піратську копію».
Музика, яку представляють так би мовити «оновлені Гайдамаки», жодного відношення до оригінального звучання колективу не має.
Зі свого боку музиканти «Гайдамаків» підкреслюють – власної творчої роботи не припиняють. Наразі завершується запис нового матеріалу. Це будуть «Гайдамаки», добре відомі, але, водночас, з новим звучанням та притаманним гурту колоритом.
«В період активної роботи, гастролей та записів,» - кажуть учасники гурту, «накопичується багато творчих ідей, реалізовувати які не дозволяють ті чи інші рамки. Тож, тепер - саме час ї їх втілити у життя». Вже найближчим часом результати творчої роботи увірвуться до музичного простору.
До подій, що зараз відбуваються з офіційним сайтом гурту Haydamaky.com та спільнотами у соціальних мережах (зокрема видалення так званих «небажаних» коментарів) ми, музиканти гурту «Гайдамаки», жодного відношення не маємо, адже були усунені від адміністрування та доступу до ресурсів.
Наразі ми працюємо над новим медіа-контентом.

***

Якщо у Вас виникнуть додаткові запитання, просимо звертатись до нас за телефоном:
+38 099 926 95 96
або за адресою:
[email protected]

Lev 
VIP


З нами з: 14.10.09
Востаннє: 05.12.16
Повідомлень: 1819

2012-02-19 22:45  
ssTAss написано:
Ярмола пішов стопами Вакарчука і Барбари?


Схоже, шо так.
Зелена жаба - український національний звір.

jinotot 
Почесний оцифрувальник літератури


З нами з: 28.01.09
Востаннє: 04.12.16
Повідомлень: 3235

2012-02-19 22:54  
Lev, ну шо зразу "жаба-жаба"?.. Може, він із-за любві))))

Ну, і шоб не рахувалось флудом, питання до модераторів: маю я їхній диск "Кобзар". Чи можна / чи є сенс ріпнути образом у флак і зробити окремий реліз? Ну, навіть якщо осбливо ніякого сенсу у тому нема (сам розумію Happy), то чи не рахуватиметься за повтор, якщо таки зроблю цю роздачу?

Також маю промо-диск їхній з усякими медіа-додатками. Згодом викладу.

ssTAss 
Модератор музики


З нами з: 05.07.08
Востаннє: 06.12.16
Повідомлень: 10946

2012-02-19 22:57  
Lev написано:

Схоже, шо так.

Зелена жаба - український національний звір.

та не зовсім
з Міськом - там жінка *всьому голова*, Славко - *і ва лбу звєзда гаріт*, а шо з Ярмолою стряслося? який гедзь вкусив? "Ярема" не пішов чи що?

Додано через 1 хвилину 53 секунди:

jinotot написано:
то чи не рахуватиметься за повтор

рахуватиметься
хіба автор релізу захоче поміняти в себе

jinotot 
Почесний оцифрувальник літератури


З нами з: 28.01.09
Востаннє: 04.12.16
Повідомлень: 3235

2012-02-19 23:11  
ssTAss написано:
рахуватиметься
але ж тут потрековий ріп і стягнутий з мережі, а я пропоную власний і образом Happy
Але, як "нє", то й "нє"... Мені однаково, зареліжу тоді щось інше.

ssTAss 
Модератор музики


З нами з: 05.07.08
Востаннє: 06.12.16
Повідомлень: 10946

2012-02-20 00:11  
jinotot написано:
але ж тут потрековий ріп

нормальний потрековий - з логом і куе
але кажу ж, якщо автор згідний замінити - робіть, домовляйтеся
jinotot написано:
зареліжу тоді щось інше.

о, чекаємо

Lev 
VIP


З нами з: 14.10.09
Востаннє: 05.12.16
Повідомлень: 1819

2012-02-23 06:20  
ssTAss написано:
а шо з Ярмолою стряслося? який гедзь вкусив?


щойно прочитав на ФДР Радіоцентрі два інтерв'ю - з Ярмолою і 5 музикантами, які залишились не при ділах, їхні позиції досить зрозумілі.
найцікавішим моментом є те, шо Ярмола каже, ніби тепер його колишні колеги працюють з Чубаєм, і оце (якщо це правда) інтригує, адже більше про це я ніде не чув.

Ásbjörn 
Новенький


З нами з: 10.09.13
Востаннє: 08.11.13
Повідомлень: 1

2013-10-06 11:04  
До нас Гайдамаки( в Вінницю) приїжджали, з новим гуртом тепер Ярмола, ось...
Vakula_S 
Новенький


З нами з: 16.03.10
Востаннє: 08.09.16
Повідомлень: 16

2015-03-07 13:59  
ОНОВЛЕНО 05.03.2008
Цитата:

- впорядковано треки в "2002 - Гадамаки", перекодовано FLAC з SEEKTABLE
- додано обгортки до "2005 - Перверзія"
- альбом "2008 - Кобзар" замінено на альбом видавництва Antena Krzyku, з бонусним треком, ковриками і без дефектів як на диску CompMusic
- додано альбом "2009 - Voo Voo i Haydamaky"


Я не хвильку прошу вибачення, таке не можливо!!!! Rolleyes (1)

Ваш часовий пояс: GMT + 2 Години

Нова тема   Відповісти