Завантажити та скачати торренти українською


Полинове Поле - На семи вітрах [LP] (2009) [FLAC] | Gothic-Doom

Нові коментарі

Нова тема   Відповісти
Автор Повідомлення
MBear 
Новенький


З нами з: 06.02.10
Востаннє: 17.02.16
Повідомлень: 15

2010-02-09 20:22  
Полинове Поле - На семи вітрах [LP] (2009) [FLAC] | Gothic-Doom


Стиль: Gothic-Doom
Країна, місто: Україна, Львів
Сайти: Офіційний сайт YouTube
Виконавці:
Маріанна Лаба - вокал
Юрій Круп'як - вокал
Андрій Кіндратович - бас-гітара
Сергій Красуцький - перкусії
Олег Рубанов - клавішні
Микола Максименко - гітара
Пісні:
    1. На семи вітрах (3:37)
    2. Вітер з півночі (6:46)
    3. Та, що танцює на могилах (4:59)
    4. Чисті душі (6:18)
    5. Нічні птахи (5:25)
    6. Квіти мороку (1:10)
    7. З попелу (5:12)
    8. Полинове поле (4:06)
    9. Чорна рілля (8:12)
    10. Відьма (5:22)

Тривалість: 00:51:13
Мова: українська
Аудіо-кодек: FLAC
Бітрейт: ~ 1000 кбіт/с
Додаткова інформація:
Запис, зведення, мастеринг - Роман Працьовитий (ІРІЙ), www.romarec.ua
Запис сопілки - Юліан Міцик (КРОДА)
Дизайн та розробка обкладинки - Олександр "belarafon" Усатий

Полинове Поле
Ми вдячні:
Кожному хто почує ці пісні.
Нашим ближнім і дальнім за підтримку.
Заходу сонця і темній ночі за натхнення.
Всім перешкодам, що змушували йти вперед.
Всім дорогам, що чекають у майбутньому.
"Logfile EAC"
Exact Audio Copy V0.99 prebeta 5 from 4. May 2009

EAC extraction logfile from 9. February 2010, 13:28

Полинове Поле / На Семи Вітрах

Used drive : ASUS DRW-1814BLT Adapter: 0 ID: 1

Read mode : Secure
Utilize accurate stream : Yes
Defeat audio cache : Yes
Make use of C2 pointers : No

Read offset correction : 6
Overread into Lead-In and Lead-Out : No
Fill up missing offset samples with silence : Yes
Delete leading and trailing silent blocks : No
Null samples used in CRC calculations : Yes
Used interface : Native Win32 interface for Win NT & 2000
Gap handling : Appended to previous track

Used output format : User Defined Encoder
Selected bitrate : 768 kBit/s
Quality : High
Add ID3 tag : No
Command line compressor : E:\Program\Exact Audio Copy\FLAC\FLAC.EXE
Additional command line options : -8 -V -T "ARTIST=%a" -T "TITLE=%t" -T "ALBUM=%g" -T "DATE=%y" -T "TRACKNUMBER=%n" -T "GENRE=%m" -T "COMMENT=EAC FLAC -8" %s

TOC of the extracted CD

Track | Start | Length | Start sector | End sector
---------------------------------------------------------
1 | 0:00.00 | 3:37.73 | 0 | 16347
2 | 3:37.73 | 6:46.62 | 16348 | 46859
3 | 10:24.60 | 4:59.33 | 46860 | 69317
4 | 15:24.18 | 6:18.67 | 69318 | 97734
5 | 21:43.10 | 5:25.19 | 97735 | 122128
6 | 27:08.29 | 1:10.67 | 122129 | 127445
7 | 28:19.21 | 5:12.49 | 127446 | 150894
8 | 33:31.70 | 4:06.55 | 150895 | 169399
9 | 37:38.50 | 8:12.53 | 169400 | 206352
10 | 45:51.28 | 5:22.22 | 206353 | 230524

Track 1

Filename C:\Temp\Полинове Поле - 2009 - На Семи Вiтрах\(01) Полинове Поле - На семи вітрах.wav

Pre-gap length 0:00:02.00

Peak level 100.0 %
Track quality 100.0 %
Test CRC 0420F56E
Copy CRC 0420F56E
Copy OK

Track 2

Filename C:\Temp\Полинове Поле - 2009 - На Семи Вiтрах\(02) Полинове Поле - Вітер з півночі.wav

Peak level 100.0 %
Track quality 100.0 %
Test CRC B942F1EE
Copy CRC B942F1EE
Copy OK

Track 3

Filename C:\Temp\Полинове Поле - 2009 - На Семи Вiтрах\(03) Полинове Поле - Та, що танцює на могилах.wav

Peak level 100.0 %
Track quality 100.0 %
Test CRC 79DA36F0
Copy CRC 79DA36F0
Copy OK

Track 4

Filename C:\Temp\Полинове Поле - 2009 - На Семи Вiтрах\(04) Полинове Поле - Чисті Душі.wav

Peak level 100.0 %
Track quality 99.9 %
Test CRC 2A261D76
Copy CRC 2A261D76
Copy OK

Track 5

Filename C:\Temp\Полинове Поле - 2009 - На Семи Вiтрах\(05) Полинове Поле - Нічні птахи.wav

Peak level 100.0 %
Track quality 100.0 %
Test CRC E4A26339
Copy CRC E4A26339
Copy OK

Track 6

Filename C:\Temp\Полинове Поле - 2009 - На Семи Вiтрах\(06) Полинове Поле - Квіти мороку.wav

Peak level 99.9 %
Track quality 100.0 %
Test CRC C692AF66
Copy CRC C692AF66
Copy OK

Track 7

Filename C:\Temp\Полинове Поле - 2009 - На Семи Вiтрах\(07) Полинове Поле - З попелу.wav

Peak level 100.0 %
Track quality 100.0 %
Test CRC D04666CF
Copy CRC D04666CF
Copy OK

Track 8

Filename C:\Temp\Полинове Поле - 2009 - На Семи Вiтрах\(08) Полинове Поле - Полинове Поле.wav

Peak level 100.0 %
Track quality 99.9 %
Test CRC 8F3FC3A6
Copy CRC 8F3FC3A6
Copy OK

Track 9

Filename C:\Temp\Полинове Поле - 2009 - На Семи Вiтрах\(09) Полинове Поле - Чорна рілля.wav

Peak level 100.0 %
Track quality 100.0 %
Test CRC 8BAB510C
Copy CRC 8BAB510C
Copy OK

Track 10

Filename C:\Temp\Полинове Поле - 2009 - На Семи Вiтрах\(10) Полинове Поле - Відьма.wav

Peak level 100.0 %
Track quality 100.0 %
Test CRC 95D53CAE
Copy CRC 95D53CAE
Copy OK

No errors occurred

End of status report
"CUE Sheet"
REM GENRE "Gothic Rock"
REM DATE 2009
REM DISCID 6A0C010A
REM COMMENT "ExactAudioCopy v0.99pb5"
PERFORMER "Полинове Поле"
TITLE "На Семи Вітрах"
FILE "(01) Полинове Поле - На семи вітрах.wav" WAVE
TRACK 01 AUDIO
TITLE "На семи вітрах"
PERFORMER "Полинове Поле"
INDEX 01 00:00:00
FILE "(02) Полинове Поле - Вітер з півночі.wav" WAVE
TRACK 02 AUDIO
TITLE "Вітер з півночі"
PERFORMER "Полинове Поле"
INDEX 01 00:00:00
FILE "(03) Полинове Поле - Та, що танцює на могилах.wav" WAVE
TRACK 03 AUDIO
TITLE "Та, що танцює на могилах"
PERFORMER "Полинове Поле"
INDEX 01 00:00:00
FILE "(04) Полинове Поле - Чисті Душі.wav" WAVE
TRACK 04 AUDIO
TITLE "Чисті Душі"
PERFORMER "Полинове Поле"
INDEX 01 00:00:00
FILE "(05) Полинове Поле - Нічні птахи.wav" WAVE
TRACK 05 AUDIO
TITLE "Нічні птахи"
PERFORMER "Полинове Поле"
INDEX 01 00:00:00
FILE "(06) Полинове Поле - Квіти мороку.wav" WAVE
TRACK 06 AUDIO
TITLE "Квіти мороку"
PERFORMER "Полинове Поле"
INDEX 01 00:00:00
FILE "(07) Полинове Поле - З попелу.wav" WAVE
TRACK 07 AUDIO
TITLE "З попелу"
PERFORMER "Полинове Поле"
INDEX 01 00:00:00
FILE "(08) Полинове Поле - Полинове Поле.wav" WAVE
TRACK 08 AUDIO
TITLE "Полинове Поле"
PERFORMER "Полинове Поле"
INDEX 01 00:00:00
FILE "(09) Полинове Поле - Чорна рілля.wav" WAVE
TRACK 09 AUDIO
TITLE "Чорна рілля"
PERFORMER "Полинове Поле"
INDEX 01 00:00:00
FILE "(10) Полинове Поле - Відьма.wav" WAVE
TRACK 10 AUDIO
TITLE "Відьма"
PERFORMER "Полинове Поле"
INDEX 01 00:00:00
Обкладинки взяті з офіційного сайту.

Якщо Ви справді бажаєте підтримати українське - після прослуховування, якщо музика вам сподобалась, придбайте ліцензійний диск. Підтримаймо вітчизняних виконавців!


Срібний реліз (на рейтинг впливає 50% завантаженого)
 Трекер:    Зареєстрований   

Завантажити / скачати українську музику



відео для новачків



 Зареєстрований:   2010-02-09 20:22
 Розмір:   378 MB 
 Оцінка музики:   9.9/10 (Голосів: 17)
   
bodyanuch 
VIP


З нами з: 24.10.09
Востаннє: 17.11.16
Повідомлень: 1256

2010-02-09 20:25  
Оформлювати роздачі вміємо, а хто буде роздавати?
MBear 
Новенький


З нами з: 06.02.10
Востаннє: 17.02.16
Повідомлень: 15

2010-02-09 20:28  
дык, только оформил. стал на раздачу.
weber 
Почесний гуртомівець


З нами з: 03.08.08
Востаннє: 07.12.16
Повідомлень: 7003

2010-02-09 20:29  
Скільки файлів в роздачі. Дякую за флак
bodyanuch 
VIP


З нами з: 24.10.09
Востаннє: 17.11.16
Повідомлень: 1256

2010-02-09 20:32  
Там і в альбомному варіанті стільки файлів, там ті всі зображення це тексти пісень і досить гарно оформлено.
Skiff 
музика
музика


З нами з: 12.11.07
Востаннє: 08.12.16
Повідомлень: 3051

2010-02-09 20:51  
MBear
В назві теми й заголовку
MBear написано:
Gothic-Doom

нижче в описі
MBear написано:
Стиль: Gothic Rock

невідповідність...?

MBear 
Новенький


З нами з: 06.02.10
Востаннє: 17.02.16
Повідомлень: 15

2010-02-09 20:58  
Skiff
виправив

bodyanuch 
VIP


З нами з: 24.10.09
Востаннє: 17.11.16
Повідомлень: 1256

2010-02-09 21:20  
Скачав тільки одну пісню (а саме Відьма) і трошки пожалів якість бомба, але версія пісні мені (навіть) не подобається. Є версія де ще дядько "співає". Кого цікавить можу скинути, пишіть в ПП.
MBear 
Новенький


З нами з: 06.02.10
Востаннє: 17.02.16
Повідомлень: 15

2010-02-09 22:07  
bodyanuch
з дядьком Wide grin )))))))))))
http://www.youtube.com/polynovepole#p/u/13/z9CFqL4hIPo Виступ на "РОК-МАРАФОНІ" ?
http://www.youtube.com/polynovepole#p/u/7/XrAKYdgSy1g Live on Vysadka-Festival (26.01.2008 Ternopil) ?

Воїн 
Відео Гуртом - дизайнер
Відео Гуртом - дизайнер


З нами з: 30.06.08
Востаннє: 05.12.16
Повідомлень: 1130

2010-02-10 08:47  
MBear написано:
з дядьком )))))))))))

Файно є! =))
bodyanuch а в Вас запис пісні студійний чи з концерту?

MBear 
Новенький


З нами з: 06.02.10
Востаннє: 17.02.16
Повідомлень: 15

2010-02-10 11:23  
Воїн
Цитата:
а в Вас запис пісні студійний

просто не існує

ssTAss 
Модератор музики


З нами з: 05.07.08
Востаннє: 08.12.16
Повідомлень: 10947

2010-02-10 12:30  
оу, велике дякую за альбом

і маленьке зауваження - бітрейт в луслес релізах також необхідно вказувати..

MBear 
Новенький


З нами з: 06.02.10
Востаннє: 17.02.16
Повідомлень: 15

2010-02-10 14:23  
ssTAss
http://flac.sourceforge.net/faq.html#general__lowest_bitrate

What is the lowest bitrate (or highest compression) achievable with FLAC?
With FLAC you do not specify a bitrate like with some lossy codecs. It's more like specifying a quality with Vorbis or MPC, except with FLAC the quality is always "lossless" and the resulting bitrate is roughly proportional to the amount of information in the original signal. You cannot control the bitrate much and the result can be from around 100% of the input rate (if you are encoding noise), down to almost 0 (encoding silence).


________
при "Additional command line options : -8 -V -T "ARTIST=%a" -T "TITLE=%t" -T "ALBUM=%g" -T "DATE=%y" -T "TRACKNUMBER=%n" -T "GENRE=%m" -T "COMMENT=EAC FLAC -8" %s "
це - "Selected bitrate : 768 kBit/s " не працує.
Я би вказав, але не знаю який вiн, i це не має значення для цього формату.

bodyanuch 
VIP


З нами з: 24.10.09
Востаннє: 17.11.16
Повідомлень: 1256

2010-02-10 16:05  
Воїн я витягнув звук із відео.
Висадка в Тернополі. 26.01.2008
Доречі це в мому рідному файному місті. Висадка кермує! Wide grin

ssTAss 
Модератор музики


З нами з: 05.07.08
Востаннє: 08.12.16
Повідомлень: 10947

2010-02-10 18:03  
MBear написано:

ssTAss
http://flac.sourceforge.net/faq.html#general__lowest_bitrate

так і знав що зараз почнеться
чи Ви думаєте що всі тут дурні зібрались і не знають що таке луслес?
ніж таким щось казати краще просто стягнути той реліз (і так це зробив) і самому поставити той бітрейт...

MBear 
Новенький


З нами з: 06.02.10
Востаннє: 17.02.16
Повідомлень: 15

2010-02-10 19:14  
ssTAss
Цитата:
чи Ви думаєте що всі тут дурні зібрались і не знають що таке луслес?

Знаєте i добре. Щоб вказати бітрейт поліз читати документацiю, а це єдинне, що я там про нього знайшов.
В мене на нього пише "unknown bitrate", а так вказав би.

Цитата:
ніж таким щось казати краще просто стягнути той реліз (і так це зробив) і самому поставити той бітрейт...

дякую.
може пiдкажите навiщо це треба, або FAQ є ?

Воїн 
Відео Гуртом - дизайнер
Відео Гуртом - дизайнер


З нами з: 30.06.08
Востаннє: 05.12.16
Повідомлень: 1130

2010-02-10 21:29  
bodyanuch написано:
я витягнув звук із відео.

Думав що є запис по якісніше.
Але дякую і на тому. Мені і відео вистачило.

bodyanuch 
VIP


З нами з: 24.10.09
Востаннє: 17.11.16
Повідомлень: 1256

2010-02-10 21:51  
ну звичайно не flac, але 256 кбіт/с
Післямова: за три секунди зробив 833 Wide grin

Лейтенант 
Новенький


З нами з: 22.03.10
Востаннє: 06.02.11
Повідомлень: 1

2010-03-22 22:59  
хлопці, як тут качати??? Sad (2)
Воїн 
Відео Гуртом - дизайнер
Відео Гуртом - дизайнер


З нами з: 30.06.08
Востаннє: 05.12.16
Повідомлень: 1130

2010-03-22 23:02  
Лейтенант читайте:
http://toloka.to/t7438

popojan 
Новенький


З нами з: 29.07.10
Востаннє: 21.03.14
Повідомлень: 1

2010-07-29 15:31  
Дуже дякую!
Givi 
Модератор відео


З нами з: 25.02.08
Востаннє: 08.12.16
Повідомлень: 2862

2010-10-04 19:18  
Чомусь мені нагадує Nightwish Wink (1)
shtoz 
Поважний учасник


З нами з: 12.07.10
Востаннє: 21.11.16
Повідомлень: 153

2010-10-04 20:42  
Чесно кажучи якесь трохи розчарування, старі версії пісень мені подобались більше.
Givi 
Модератор відео


З нами з: 25.02.08
Востаннє: 08.12.16
Повідомлень: 2862

2010-10-05 19:14  
А мені щось все більше і більше подобається цей альбум-с Happy
manyelito 
Новенький


З нами з: 13.01.09
Востаннє: 16.09.14
Повідомлень: 14

2011-05-10 18:10  
Дякую! Послухаю справжній український гурт.Так тримати.
imazalov 
Новенький


З нами з: 29.03.13
Востаннє: 28.01.15
Повідомлень: 1

2015-01-28 18:58  
дякую зі Львова!
Огромное спасибо - даже и не знал что такой перл из моего родного города тут есть! Слава Украине НАЗАВЖДИ!!!

Oleksa9 
Поважний учасник


З нами з: 17.05.12
Востаннє: 07.12.16
Повідомлень: 225

2015-01-28 19:17  
imazalov написано:

Огромное спасибо-дякую зіЛьвова!

даже и не знал что такой перл из моего родного города тут есть! Слава Украине НАЗАВЖДИ!!!

2. Правила та обмеження форуму
Усім без винятку заборонено:
2.1 Спілкуватися іншою мовою, аніж літературною українською;

Нащо правила писані?

Ваш часовий пояс: GMT + 2 Години

Нова тема   Відповісти