Завантажити та скачати торренти українською


Наталя-Марина Фарина та її учні - Колядничок (2009) [FLAC] | Folk

Нові коментарі

Нова тема   Відповісти
Автор Повідомлення
K2 
Поважний учасник


З нами з: 02.11.08
Востаннє: 02.12.16
Повідомлень: 158

2010-01-29 18:29  
Наталя-Марина Фарина та її учні - Колядничок (2009) [FLAC] | Folk




Споконвіку на Україні зимові свята супроводжували численні традиції, звичаї, обряди, вірування тощо. За допомогою поетичного слова і магічного акту, святковою урочистою обстановкою люди прагнули створити в ці дні вимріяний образ достатку, щастя, злагоди і спокою в своїй оселі.
Нині, коли робимо спроби відродити духовність українського народу, то маємо неодмінно повернути із забуття традиційні колядки та щедрівки, які завжди були унікальним пластом музично-вокальної культури, важливим компонентом обрядово-побутового співу, народного театру, вертепу.
З метою популяризації народних традицій в наш час, нам хотілось створити такий збірник колядок, в якому можна було прочитати та вивчити не тільки текст творів, але й навчитись їх співати. Заслужена артистка України Наталя-Марія Фарина підібрала твори та ноти для даного збірника та разом зі своїми учнями записала компакт-диск колядок, щедрівок і новорічних пісень.
Записані на компакт-диску відомі твори виконуються як солоспівами, так і дво-, три- та чотириголосним співом. У музичному супроводі бандури та гітари, вони отримали особливе гармонійне забарвлення та звучать по-сучасному.
Отож, співаймо разом!


Стиль: Folk
Країна, місто: Україна
Видавець: ТзОВ фірма "Овід", запис здійснено на студії Андрія Вавринчука (м.Рівне)
Виконавці:
    Наталя-Марина Фарина
    Віка Дмитрук
    Уляна Фарина
    Анастасія Перетягіна
    Наталія Турко
    Юрій Стасюк
    Тетяна Костюк-Августинович

Пісні:
    01. Добрий вечір тобі, пане господарю
    02. Темненькая ніч
    03. В Вифлиємі новина
    04. По всьому світу
    05. На небі зірка ясна засяяла
    06. Що то за предиво
    07. Спи Ісусе, спи
    08. Янголи в небі
    09. Мирно спить в яслах дитятко
    10. Свята ніч, тиха ніч
    11. Хто там на дорозі
    12. Возвеселімся
    13. В полі, полі
    14. Небо ясні зірки вкрили
    15. Бог ся рождає
    16. Різдв'яна пісня
    17. Ніч новорічна

Тривалість: 00:50:18
Аудіо-кодек: FLAC
Бітрейт: 820 кб/с
Тип ріпу: image+.cue
Джерело: Власна колекція
EAC log
Exact Audio Copy V0.99 prebeta 5 from 4. May 2009

Звіт EAC про видобування, котре виконане 28. січня 2010, 21:14

Наталя-Марина Фарина та її учні / Колядничок

Дисковод: ASUS DRW-2014S1T Adapter: 2 ID: 0

Режим читання : Точний
Використати точний потік : Так
Вимкнути аудіо кеш : Так
Застосувати мітки C2 : Ні

Корекція зміщення при читанні : 6
Екстрачитання областей Lead-in і Lead-out : Ні
Заповнення пропущених семплів тишею : Так
Видалення блоків з тишею на початку і кінці : Ні
При вирахуванні CRC використовувались нульові семпли : Так
Використаний інтерфейс : 'Рідний' Win32-інтерфейс для Win NT/2000

Застосований вихідний формат : Кодер Користувача
Обраний бітрейт : 1024 kBit/s
Якість : Високий
Додати тег ID3 : Ні
Компресор командного рядка : E:\K2\Portable\EAC\eac-0.99pb5\FLAC\FLAC.EXE
Додаткові параметри командного рядка : -8 -V %s

TOC видобутого CD

Трек | Старт | Довжина | Початковий сектор | Кінцевий сектор
------------------------------------------------------------------
1 | 0:00.00 | 0:45.05 | 0 | 3379
2 | 0:45.05 | 3:13.01 | 3380 | 17855
3 | 3:58.06 | 3:50.46 | 17856 | 35151
4 | 7:48.52 | 1:53.60 | 35152 | 43686
5 | 9:42.37 | 2:38.48 | 43687 | 55584
6 | 12:21.10 | 2:08.08 | 55585 | 65192
7 | 14:29.18 | 2:52.27 | 65193 | 78119
8 | 17:21.45 | 4:20.30 | 78120 | 97649
9 | 21:42.00 | 1:31.07 | 97650 | 104481
10 | 23:13.07 | 2:11.51 | 104482 | 114357
11 | 25:24.58 | 4:03.63 | 114358 | 132645
12 | 29:28.46 | 2:59.36 | 132646 | 146106
13 | 32:28.07 | 1:44.61 | 146107 | 153967
14 | 34:12.68 | 1:56.38 | 153968 | 162705
15 | 36:09.31 | 2:52.58 | 162706 | 175663
16 | 39:02.14 | 3:57.23 | 175664 | 193461
17 | 42:59.37 | 4:07.44 | 193462 | 212030
18 | 47:07.06 | 3:11.21 | 212031 | 226376

Статус діапазону і помилки

Обраний діапазон

Ім'я файлу E:\Music\_UA\НАРОДНІ\Наталя-Марина Фарина та її учні - Колядничок (2009)\Наталя-Марина Фарина та її учні - Колядничок.wav

Піковий рівень 98.8 %
Якість діапазону 100.0 %
CRC тесту 5D580360
CRC копії 5D580360
Копіювання... OK

Помилки не траплялися

Звіт Точного Видобування

Трек 1 не присутнє в базі даних
Трек 2 не присутнє в базі даних
Трек 3 не присутнє в базі даних
Трек 4 не присутнє в базі даних
Трек 5 не присутнє в базі даних
Трек 6 не присутнє в базі даних
Трек 7 не присутнє в базі даних
Трек 8 не присутнє в базі даних
Трек 9 не присутнє в базі даних
Трек 10 не присутнє в базі даних
Трек 11 не присутнє в базі даних
Трек 12 не присутнє в базі даних
Трек 13 не присутнє в базі даних
Трек 14 не присутнє в базі даних
Трек 15 не присутнє в базі даних
Трек 16 не присутнє в базі даних
Трек 17 не присутнє в базі даних
Трек 18 не присутнє в базі даних

Жодного трека немає в базі AccurateRip

Кінець звіту
Audiochecker log
AUDIOCHECKER v2.0 beta (build 457) - by Dester - [email protected]
~~~~~~~~~~~~~~~~~~~~~~~~~~~~~~~~~~

Started at: п'ятниця, 29. 01. 2010. - 17:28.36
1 file found

1 -===- E:\Music\_UA\НАРОДНІ\Наталя-Марина Фарина та її учні - Колядничок (2009)\Наталя-Марина Фарина та її учні - Колядничок.flac
Extracted successfully
Conclusion: this track is CDDA with probability 100%
Tempfile successfully deleted.

Finished at: п'ятниця, 29. 01. 2010. - 17:33.55 (operation time: 0:05.19)
MD5: Наталя-Марина Фарина та її учні - Колядничок.flac - FAB40C1ED5D96EB8412472F0A417E379
Приклади сканів з буклету:


В папці Covers: скан обкладинки та диску.
В папці Book: скани буклету.


Якщо Ви справді бажаєте підтримати українське - після прослуховування, якщо музика вам сподобалась, придбайте ліцензійний диск.
Підтримаймо вітчизняних виконавців!


Срібний реліз (на рейтинг впливає 50% завантаженого)
 Трекер:    Зареєстрований   

Завантажити / скачати українську музику



відео для новачків



 Зареєстрований:   2010-01-29 19:04
 Розмір:   328 MB 
 Оцінка музики:   10/10 (Голосів: 6)
   
jinotot 
Почесний оцифрувальник літератури


З нами з: 28.01.09
Востаннє: 16.11.16
Повідомлень: 3235

2010-01-29 19:21  
K2_UNDERGROUND, оформлення дещо нестандартне, але цілком може бути і так Happy
Або ж текст можна подати внизу у графі "Додаткова інформація".
Попрошу тільки ще вказати видавця диску, будь ласка!

K2 
Поважний учасник


З нами з: 02.11.08
Востаннє: 02.12.16
Повідомлень: 158

2010-01-29 19:30  
Цитата:
Видавець: Студія Андрія Вавринчука (м.Рівне)

jinotot 
Почесний оцифрувальник літератури


З нами з: 28.01.09
Востаннє: 16.11.16
Повідомлень: 3235

2010-01-29 21:44  
Студія звукозапису і видавець зазвичай відрізняються. Під видавцем мається на увазі лейбл, який який займається виданням і розповсюдженням диску, або ж той, хто дав кошти на видання.
Згідно інформації з буклету я підправив.
Дякую дуже за реліз! Happy
Трошки пізно, правда, свята вже пройшли, але нічого -- на той рік згодиться Wink (2)

K2 
Поважний учасник


З нами з: 02.11.08
Востаннє: 02.12.16
Повідомлень: 158

2010-01-29 23:25  
Знаю, що з запізненням, але диск попав до мене на днях, причому я мав його віддати дуже швидке тому зразу вирішив його зарелізити щоб не пилився на вінчестері. На рахунок видданя і лейблів дійсно заплутавсь, так як друкували в одному місці, писали в іншому. Дякую за допомогу.
Ваш часовий пояс: GMT + 2 Години

Нова тема   Відповісти