Завантажити та скачати торренти українською


Гурт "Експрес" - Українські застольні пісні. Стіл другий(2004) [FLAC] | Folk

Нові коментарі

Нова тема   Відповісти
Останній раз роздавалося yura77777 (2016-10-15)
Автор Повідомлення
K2 
Поважний учасник


З нами з: 02.11.08
Востаннє: 04.12.16
Повідомлень: 158

2010-01-08 15:16  
Гурт "Експрес" - Українські застольні пісні. Стіл другий (2004) [FLAC] | Folk



Стиль: Folk
Країна, місто: Україна
Видавець: Tip-Top Music
Виконавці:
Борис Сичевський
Оксана Фарщук
Володимир Іжицький
Тетяна Костюк-Августинович
Пісні:
    1. Час рікою пливе
    2. Чом ти не прийшов
    3. Мамина коса
    4. Ой на горі цигани стояли
    5. Гиля, гуси
    6. Била мене мати
    7. Пісня про рушник
    8. Місяць на небі
    9. Ой чорна, я сі чорна
    10. Ой чий то кінь стоїть
    11. Зеленіє жито
    12. Ой не світи, місяченьку
    13. Ой у вишневому садочку
    14. Наливаймо браття

Тривалість: 00:51:49
Аудіо-кодек: FLAC
Бітрейт: 948 кб/с
Тип ріпу: image+.cue
Джерело: Власна колекція
EAC log
Exact Audio Copy V0.99 prebeta 5 from 4. May 2009

Звіт EAC про видобування, котре виконане 8. січня 2010, 13:44

Гурт Експрес / Українські застольні пісні. Стіл другий

Дисковод: ASUS DRW-2014S1T Adapter: 2 ID: 0

Режим читання : Точний
Використати точний потік : Так
Вимкнути аудіо кеш : Так
Застосувати мітки C2 : Ні

Корекція зміщення при читанні : 6
Екстрачитання областей Lead-in і Lead-out : Ні
Заповнення пропущених семплів тишею : Так
Видалення блоків з тишею на початку і кінці : Ні
При вирахуванні CRC використовувались нульові семпли : Так
Використаний інтерфейс : 'Рідний' Win32-інтерфейс для Win NT/2000

Застосований вихідний формат : Кодер Користувача
Обраний бітрейт : 1024 kBit/s
Якість : Високий
Додати тег ID3 : Ні
Компресор командного рядка : E:\K2\Portable\EAC\eac-0.99pb5\FLAC\FLAC.EXE
Додаткові параметри командного рядка : -8 -V %s

TOC видобутого CD

Трек | Старт | Довжина | Початковий сектор | Кінцевий сектор
------------------------------------------------------------------
1 | 0:00.00 | 4:18.71 | 0 | 19420
2 | 4:18.71 | 3:33.12 | 19421 | 35407
3 | 7:52.08 | 4:12.66 | 35408 | 54373
4 | 12:04.74 | 3:33.60 | 54374 | 70408
5 | 15:38.59 | 3:44.70 | 70409 | 87278
6 | 19:23.54 | 2:40.39 | 87279 | 99317
7 | 22:04.18 | 3:48.03 | 99318 | 116420
8 | 25:52.21 | 4:27.18 | 116421 | 136463
9 | 30:19.39 | 3:14.41 | 136464 | 151054
10 | 33:34.05 | 4:06.39 | 151055 | 169543
11 | 37:40.44 | 3:57.73 | 169544 | 187391
12 | 41:38.42 | 4:04.15 | 187392 | 205706
13 | 45:42.57 | 3:04.05 | 205707 | 219511
14 | 48:46.62 | 3:03.06 | 219512 | 233242

Статус діапазону і помилки

Обраний діапазон

Ім'я файлу C:\1\Гурт Експрес - Українські застольні пісні. Стіл другий.wav

Піковий рівень 99.9 %
Якість діапазону 100.0 %
CRC тесту 0E4125AB
CRC копії 0E4125AB
Копіювання... OK

Помилки не траплялися

Звіт Точного Видобування

Трек 1 не присутнє в базі даних
Трек 2 не присутнє в базі даних
Трек 3 не присутнє в базі даних
Трек 4 не присутнє в базі даних
Трек 5 не присутнє в базі даних
Трек 6 не присутнє в базі даних
Трек 7 не присутнє в базі даних
Трек 8 не присутнє в базі даних
Трек 9 не присутнє в базі даних
Трек 10 не присутнє в базі даних
Трек 11 не присутнє в базі даних
Трек 12 не присутнє в базі даних
Трек 13 не присутнє в базі даних
Трек 14 не присутнє в базі даних

Жодного трека немає в базі AccurateRip

Кінець звіту
Audiochecker log
AUDIOCHECKER v2.0 beta (build 457) - by Dester - [email protected]
~~~~~~~~~~~~~~~~~~~~~~~~~~~~~~~~~~

Started at: п'ятниця, 08. 01. 2010. - 13:48.06
1 file found

1 -===- E:\K2\Portable\EAC\Rips\Гурт Експрес - Українські застольні пісні. Стіл другий\Гурт Експрес - Українські застольні пісні. Стіл другий.flac
Extracted successfully
Conclusion: this track is CDDA with probability 100%
Tempfile successfully deleted.

Finished at: п'ятниця, 08. 01. 2010. - 13:53.09 (operation time: 0:05.02)
MD5: Гурт Експрес - Українські застольні пісні. Стіл другий.flac - 7E4506A30D3DAB2B1FD0B29021DD356E

Якщо Ви справді бажаєте підтримати українське - після прослуховування, якщо музика вам сподобалась, придбайте ліцензійний диск.
Підтримаймо вітчизняних виконавців!


Срібний реліз (на рейтинг впливає 50% завантаженого)
 Трекер:    Зареєстрований   

Завантажити / скачати українську музику



відео для новачків



 Зареєстрований:   2010-01-08 15:17
 Розмір:   372 MB 
 Оцінка музики:   9.1/10 (Голосів: 8)
   
algol66 
Новенький


З нами з: 25.05.12
Востаннє: 04.12.16
Повідомлень: 10

2013-05-12 20:36  
Роздайте, хто небуть! Дякую!
vtaykalo56 
Новенький


З нами з: 27.01.10
Востаннє: 03.12.16
Повідомлень: 3

2013-08-05 18:10  
скажіть будьласка і хтож до вас ще зайде якщо 3 добу пробую закачати і нуль!!!!!!!!!
kolpavel 
VIP


З нами з: 04.05.14
Востаннє: 04.12.16
Повідомлень: 1060

2015-06-06 14:25  
Гурт "Експрес" - Українські застольні пісні. Стіл третiй (2006) [FLAC] | Folk/Pop http://toloka.to/t66266#734271
Ваш часовий пояс: GMT + 2 Години

Нова тема   Відповісти