Завантажити та скачати торренти українською


Гурт "Експрес" - Українські застольні пісні (2003) [FLAC] | Folk

Нові коментарі

Нова тема   Відповісти
Останній раз роздавалося pankivkolya (2016-12-02)
Автор Повідомлення
K2 
Поважний учасник


З нами з: 02.11.08
Востаннє: 06.12.16
Повідомлень: 158

2010-01-08 13:00  
Гурт "Експрес" - Українські застольні пісні (2003) [FLAC] | Folk



Стиль: Folk
Країна, місто: Україна
Видавець: Tip-Top Music
Виконавці:
Борис Сичевський
Оксана Фарщук
Володимир Іжицький
Пісні:
    1. Ой, у вишневому саду
    2. Їхали козаки
    3. Ой, гарна я гарна
    4. Підманула, підвела
    5. У саду гуляла
    6. Ой, у полі криниченька
    7. Цвіте терен
    8. Два дубки
    9. Несе Галя воду
    10. Варенички
    11. Ніч яка місячна
    12. Розпрягайте, хлопці, коней
    13. Горіла сосна
    14. Ой, хмелю, ж мій хмелю
    15. Гей, наливайте!

Тривалість: 00:53:21
Мова: українська
Аудіо-кодек: FLAC
Бітрейт: 1038 кб/с
Тип ріпу: image+.cue
Джерело: Власна колекція
EAC log
Exact Audio Copy V0.99 prebeta 5 from 4. May 2009

Звіт EAC про видобування, котре виконане 8. січня 2010, 11:57

Гурт "Експрес" / Українські застольні пісні

Дисковод: ASUS DRW-2014S1T Adapter: 2 ID: 0

Режим читання : Точний
Використати точний потік : Так
Вимкнути аудіо кеш : Так
Застосувати мітки C2 : Ні

Корекція зміщення при читанні : 6
Екстрачитання областей Lead-in і Lead-out : Ні
Заповнення пропущених семплів тишею : Так
Видалення блоків з тишею на початку і кінці : Ні
При вирахуванні CRC використовувались нульові семпли : Так
Використаний інтерфейс : 'Рідний' Win32-інтерфейс для Win NT/2000

Застосований вихідний формат : Кодер Користувача
Обраний бітрейт : 1024 kBit/s
Якість : Високий
Додати тег ID3 : Ні
Компресор командного рядка : E:\K2\Portable\EAC\eac-0.99pb5\FLAC\FLAC.EXE
Додаткові параметри командного рядка : -8 -V %s

TOC видобутого CD

Трек | Старт | Довжина | Початковий сектор | Кінцевий сектор
------------------------------------------------------------------
1 | 0:00.00 | 4:08.44 | 0 | 18643
2 | 4:08.44 | 4:23.33 | 18644 | 38401
3 | 8:32.02 | 3:40.00 | 38402 | 54901
4 | 12:12.02 | 3:27.35 | 54902 | 70461
5 | 15:39.37 | 4:17.55 | 70462 | 89791
6 | 19:57.17 | 2:51.53 | 89792 | 102669
7 | 22:48.70 | 4:14.50 | 102670 | 121769
8 | 27:03.45 | 3:05.58 | 121770 | 135702
9 | 30:09.28 | 4:04.46 | 135703 | 154048
10 | 34:13.74 | 2:22.65 | 154049 | 164763
11 | 36:36.64 | 3:17.11 | 164764 | 179549
12 | 39:54.00 | 4:57.19 | 179550 | 201843
13 | 44:51.19 | 3:11.17 | 201844 | 216185
14 | 48:02.36 | 3:19.06 | 216186 | 231116
15 | 51:21.42 | 2:00.08 | 231117 | 240124

Статус діапазону і помилки

Обраний діапазон

Ім'я файлу C:\1\Гурт Експрес - Українські застольні пісні.wav

Піковий рівень 99.4 %
Якість діапазону 100.0 %
CRC тесту E26B0C7C
CRC копії E26B0C7C
Копіювання... OK

Помилки не траплялися

Звіт Точного Видобування

Трек 1 не присутнє в базі даних
Трек 2 не присутнє в базі даних
Трек 3 не присутнє в базі даних
Трек 4 не присутнє в базі даних
Трек 5 не присутнє в базі даних
Трек 6 не присутнє в базі даних
Трек 7 не присутнє в базі даних
Трек 8 не присутнє в базі даних
Трек 9 не присутнє в базі даних
Трек 10 не присутнє в базі даних
Трек 11 не присутнє в базі даних
Трек 12 не присутнє в базі даних
Трек 13 точність не визначена (достовірність 1) [41858B5E], AccurateRip повернув [EC47CD5E]
Трек 14 точність не визначена (достовірність 1) [0CF62F04], AccurateRip повернув [8E38E304]
Трек 15 не присутнє в базі даних

2 трек(и) не вдалося перевірити на точність
13 трек(и) не містяться в базі AccurateRip

Жоден трек не пройшов перевірку на точність
В Вашій базі може бути інший варіант штамповки диска

Кінець звіту
Audiochecker log
AUDIOCHECKER v2.0 beta (build 457) - by Dester - [email protected]
~~~~~~~~~~~~~~~~~~~~~~~~~~~~~~~~~~

Started at: п'ятниця, 08. 01. 2010. - 13:05.59
1 file found

1 -===- E:\K2\Portable\EAC\Rips\Українські застольні пісні\Гурт Експрес - Українські застольні пісні.flac
Extracted successfully
Conclusion: this track is CDDA with probability 100%
Tempfile successfully deleted.

Finished at: п'ятниця, 08. 01. 2010. - 13:11.51 (operation time: 0:05.52)
MD5: Гурт Експрес - Українські застольні пісні.flac - 1ADEE9BBBE3F469639BA6CD0357A79C0

Якщо Ви справді бажаєте підтримати українське - після прослуховування, якщо музика вам сподобалась, придбайте ліцензійний диск.
Підтримаймо вітчизняних виконавців!


Срібний реліз (на рейтинг впливає 50% завантаженого)
 Трекер:    Зареєстрований   

Завантажити / скачати українську музику



відео для новачків



 Зареєстрований:   2010-01-08 13:43
 Розмір:   415 MB 
 Оцінка музики:   10/10 (Голосів: 15)
   
algol66 
Новенький


З нами з: 25.05.12
Востаннє: 07.12.16
Повідомлень: 10

2013-05-12 20:38  
Роздайте, хто небудь! Дякую!
Ромася 
Новенький


З нами з: 21.12.10
Востаннє: 31.10.16
Повідомлень: 3

2013-08-26 19:19  
algol66 написано:
Роздайте, хто небудь! Дякую!

І я також приєднуюсь!

ssTAss 
Модератор музики


З нами з: 05.07.08
Востаннє: 07.12.16
Повідомлень: 10947

2013-08-26 23:18  
став на роздачу... вантажте
Ваш часовий пояс: GMT + 2 Години

Нова тема   Відповісти